.
Авторизация | Регистрация
Хочешь лучшие торренты? Добавь свой email!
Добавить

Торрент скачать бесплатно

» » Родина / Чужой среди своих / Homeland (2015) WEB-DL [H.264 / 720p-LQ] (сезон 5, серии 1 из 12) Пифагор (обновляемая) скачать через торрент бесплатно




    Родина / Чужой среди своих / Homeland (2015) WEB-DL [H.264 / 720p-LQ] (сезон 5, серии 1 из 12) Пифагор (обновляемая) скачать через торрент бесплатно

    Опубликовал: Админ | Дата: 6-10-2015, 04:02 | Просмотров: 1308

    Производство: США/Teakwood Lane Productions, Cherry Pie Productions, Keshet Broadcasting
    Жанр: триллер, драма, детектив
    Режиссер: Лесли Линка Глаттер, Майкл Куэста, Дэниэл Эттиэс

    Актеры
    Клэр Дэйнс, Дэмиэн Льюис, Мэнди Пэтинкин, Морена Баккарин, Дэвид Хэрвуд, Руперт Френд, Джексон Пэйс, Морган Сэйлор, Ф. Мюррэй Абрахам, Диего Клаттенхофф и др.

    Описание

    Главный герой сериала — сержант ВМФ США, который после восьмилетнего плена вернулся на родину. После возвращения он начинает себя вести подозрительно. Что бы во всём разобраться, за дело берётся офицер ЦРУ, которая обвиняет сержанта в предательстве и причастности к целой серии террористических актов против Америки.

    Продолжительность: ~00: 50: 00 серия
    Качество видео: WEB-DL
    Перевод: Многоголосый закадровый, профессиональный -студия Пифагор по заказу Amedia
    Вид субтитров: вшитые отключаемые
    Язык субтитров: русский, английский
    Видео: AVC/H.264, 1280x720 (16: 9), ~4000 kb/s
    Аудио Rus: AC-3, 48, 0 kHz, 2 ch, 384 kb/s - многоголосый закадровый
    Аудио Eng: AC-3, 48, 0 kHz, 6 ch, 384 kb/s - оригинал
    Общее
    Уникальный идентификатор : 208372340273834575501288523219702417612 (0x9CC30D8F8B026710BB89C91B7DE488CC)
    Полное имя : D: Родина (сезон любимого сериала 5) Homeland (2015) WEB-DL 720p - AmediaHomeland.S05E01.WEB-DL720p.Rus.Eng.Amedia.mkv
    Формат : Matroska
    Версия формата : Version 4/Version 2
    Размер файла : 1, 63 Гбайт
    Продолжительность : 48 м.
    Общий поток : 4858 Кбит/сек
    Название фильма : Homeland.S05E01.Seperation.Anxiety.720p.WEB-Dl.AAC2.0.DD5.1.H.264-CasStudio
    Дата кодирования : UTC 2015-10-05 11: 09: 58
    Программа кодирования : mkvmerge v8.0.0 (\'Til The Day That I Die\') 64bit
    Библиотека кодирования : libebml v1.3.1 + libmatroska v1.4.2
    Attachements : Cover
    DURATION : 00: 48: 04.928000000
    NUMBER_OF_FRAMES : 90154
    NUMBER_OF_BYTES : 138476544
    _STATISTICS_WRITING_APP : mkvmerge v8.0.0 (\'Til The Day That I Die\') 64bit
    _STATISTICS_WRITING_DATE_UTC : 2015-10-05 11: 09: 58
    _STATISTICS_TAGS : BPS DURATION NUMBER_OF_FRAMES NUMBER_OF_BYTES
    Видео
    Идентификатор : 1
    Формат : AVC
    Формат/Информация : Advanced Video Codec
    Профиль формата : High@L3.1
    Параметр CABAC формата : Нет
    Параметр ReFrames формата : 2 кадра
    Идентификатор кодека : V_MPEG4/ISO/AVC
    Продолжительность : 48 м.
    Битрейт : 3993 Кбит/сек
    Ширина : 1280 пикселей
    Высота : 720 пикселей
    Соотношение сторон : 16: 9
    Режим частоты кадров : Постоянный
    Частота кадров : 25, 000 кадров/сек
    Цветовое пространство : YUV
    Субдискретизация насыщенности : 4: 2: 0
    Битовая глубина : 8 бит
    Тип развёртки : Прогрессивная
    Бит/(Пиксели*Кадры) : 0.173
    Размер потока : 1, 34 Гбайт (82%)
    Язык : English
    Default : Да
    Forced : Нет
    Цветовой диапазон : Limited
    Основные цвета : BT.709
    Характеристики трансфера : BT.709
    Коэффициенты матрицы : BT.709
    Аудио #1
    Идентификатор : 2
    Формат : AC-3
    Формат/Информация : Audio Coding 3
    Расширение режима : CM (complete main)
    Параметр Endianness формата : Big
    Идентификатор кодека : A_AC3
    Продолжительность : 48 м.
    Вид битрейта : Постоянный
    Битрейт : 384 Кбит/сек
    Каналы : 2 канала
    Расположение каналов : Front: L R
    Частота : 48, 0 КГц
    Метод сжатия : С потерями
    Размер потока : 132 Мбайт (8%)
    Заголовок : DD 2.0 @ 384 Kbps Amedia
    Язык : Russian
    Default : Да
    Forced : Нет
    Аудио #2
    Идентификатор : 3
    Формат : AC-3
    Формат/Информация : Audio Coding 3
    Расширение режима : CM (complete main)
    Параметр Endianness формата : Big
    Идентификатор кодека : A_AC3
    Продолжительность : 48 м.
    Вид битрейта : Постоянный
    Битрейт : 384 Кбит/сек
    Каналы : 6 каналов
    Расположение каналов : Front: L C R, Side: L R, LFE
    Частота : 48, 0 КГц
    Метод сжатия : С потерями
    Размер потока : 132 Мбайт (8%)
    Заголовок : DD 5.1 @ 384 Kbps Original
    Язык : English
    Default : Нет
    Forced : Нет
    Текст #1
    Идентификатор : 4
    Формат : UTF-8
    Идентификатор кодека : S_TEXT/UTF8
    Идентификатор кодека/Информация : UTF-8 Plain Text
    Заголовок : Full Amedia
    Язык : Russian
    Default : Нет
    Forced : Нет
    Текст #2
    Идентификатор : 5
    Формат : UTF-8
    Идентификатор кодека : S_TEXT/UTF8
    Идентификатор кодека/Информация : UTF-8 Plain Text
    Заголовок : СС
    Язык : English
    Default : Нет
    Forced : Нет


    Скриншоты для ознакомления




    Онлайн видео Родина



    Родина/Чужой среди своих/Homeland (2015) WEB-DL [H.264/720p-LQ] (сезон 5, серии 1 из 12) Пифагор (обновляемая)
    загрузка...
    Рейтинг →
     (голосов: 1, оценка 4/5, голосовать можно 1 раз )

    Другие торренты по теме:

  • Родина / Чужой среди своих / Homeland (2014) WEB-DL [H.264 / 720p-LQ] (сезон 4, серии 01-02 из 12) (Пифагор) (обновляемая)
  • Родина / Чужой среди своих / Homeland (2014) WEB-DLRip (сезон 4, серии 1 из 12) LostFilm (Обновляемая)
  • Родина / Чужой среди своих / Homeland (2014) WEB-DL [H.264 / 720p-LQ] (сезон 4, серии 1 из 12) LostFilm (Обновляемая)
  • Родина / Чужой среди своих / Homeland (2015) WEB-DLRip (сезон 5, серии 1 из 12) Пифагор (обновляемая) скачать через торрент бесплатно
  • Родина / Чужой среди своих / Homeland (2015) WEB-DLRip (сезон 5, серии 1 из 12) LostFilm (обновляемая) скачать через торрент бесплатно
  • Родина / Чужой среди своих / Homeland (2015) WEB-DL [H.264] (сезон 5, серии 1-8 из 12) LostFilm [MP4|1280x720] скачать через торрент бесплатно
  • Родина / Чужой среди своих / Homeland (2017) WEB-DLRip (сезон 6, серия 1 из 12) Пифагор (обновляемая)
  • Родина / Чужой среди своих / Homeland (2017) WEBRip [H.264 / 720p] (сезон 6, серии 1 из 12) LostFilm (обновляемая)


    • Комментарии (0):

      Информация

      Информация

        Посетители, находящиеся в группе Гости, не могут оставлять комментарии в данной новости.

        ↓ Меню




        ↓ Опрос

        Вы добавили сайт в закладки?
        Да
        Нет


        Top 10 за месяц (Фильмы)