.
Авторизация | Регистрация
Хочешь лучшие торренты? Добавь свой email!
Добавить

Торрент скачать бесплатно

» » Город особого назначения (2015) DVB [H.264] (серии 1-6 из 12) (обновляемая) скачать через торрент бесплатно




    Город особого назначения (2015) DVB [H.264] (серии 1-6 из 12) (обновляемая) скачать через торрент бесплатно

    Опубликовал: Админ | Дата: 5-10-2015, 04:00 | Просмотров: 126

    Производство: Россия/Киногруппа 2План2 по заказу Пятого канала
    Жанр: боевик
    Режиссер: Денис Нейманд

    Актеры
    Игорь Сергеев, Марк Гаврилов, Мария Капустинская, Максим Белбородов, Георгий Маришин, Дмитрий Ткаченко, Глеб Степан Каллистов, Оксана Сырцова, Михаил Шеломенцев, Алина Титова, Марина Даминева, Дмитрий Лебедев, Сергей Сокольский, Наталья Корольская, Инна Ярмошук и др.

    Описание

    Их вызывают в ситуациях, когда другие спецслужбы бессильны. Именно в группе Город и служат наши герои. Их набрали в отряд из других специальных подразделений МВД, ФСБ и армии. Все он прошли тяжелейший отбор и соответствуют жёстким критериям: офицерское звание, идеальное здоровье, психологическая устойчивость, высокий интеллект, способность брать на себя ответственность и проявлять инициативу. Порой за считанные минуты героям приходится рассмотреть все варианты решения проблемы, чтобы выбрать единственно верный путь и обязательно выполнить поставленную задачу.

    Дата премьеры в РФ: 3 октября 2015
    Продолжительность: ~ 00: 45: 00 серия
    Качество видео: DVB
    Видео: AVC/H.264, 720х576@768х576, ~2800 kb/s
    Аудио: МР2, 48, 0 kHz, 2 ch, 192 kb/s, CBR
    Общее
    Идентификатор : 1 (0x1)
    Полное имя : D: Город особого назначения.2015.DVB1.Город особого назначения.2015.DVB.Files-x.ts
    Формат : MPEG-TS
    Размер файла : 1, 02 Гбайт
    Продолжительность : 46 м.
    Режим общего битрейта : Переменный
    Общий поток : 3165 Кбит/сек
    Видео
    Идентификатор : 67 (0x43)
    Идентификатор меню : 1 (0x1)
    Формат : AVC
    Формат/Информация : Advanced Video Codec
    Профиль формата : Main@L3.0
    Параметр CABAC формата : Да
    Параметр ReFrames формата : 3 кадра
    Идентификатор кодека : 27
    Продолжительность : 46 м.
    Вид битрейта : Постоянный
    Битрейт : 2800 Кбит/сек
    Ширина : 720 пикселей
    Высота : 576 пикселей
    Соотношение сторон : 4: 3
    Частота кадров : 25, 000 кадров/сек
    Стандарт вещания : PAL
    Цветовое пространство : YUV
    Субдискретизация насыщенности : 4: 2: 0
    Битовая глубина : 8 бит
    Тип развёртки : Прогрессивная
    Бит/(Пиксели*Кадры) : 0.270
    Размер потока : 928 Мбайт (89%)
    Аудио
    Идентификатор : 68 (0x44)
    Идентификатор меню : 1 (0x1)
    Формат : MPEG Audio
    Версия формата : Version 1
    Профиль формата : Layer 2
    Идентификатор кодека : 3
    Продолжительность : 46 м.
    Вид битрейта : Постоянный
    Битрейт : 192 Кбит/сек
    Каналы : 2 канала
    Частота : 48, 0 КГц
    Метод сжатия : С потерями
    Размер потока : 63, 3 Мбайт (6%)
    Язык : Russian


    Скриншоты для ознакомления




    Онлайн видео Город особого назначения (2015) DVB [H.264] (серии 1



    Город особого назначения (2015) DVB [H.264] (серии 1-6 из 12) (обновляемая)
    загрузка...
    Рейтинг →
     (голосов: 1, оценка 5/5, голосовать можно 1 раз )

    Другие торренты по теме:

  • Город особого назначения (2014) SATRip (серии 1-6 из 12) (обновляемая) скачать через торрент бесплатно


    • Комментарии (0):

      Информация

      Информация

        Посетители, находящиеся в группе Гости, не могут оставлять комментарии в данной новости.

        ↓ Меню




        ↓ Опрос

        Вы добавили сайт в закладки?
        Да
        Нет


        Top 10 за месяц (Фильмы)