.
Авторизация | Регистрация
Хочешь лучшие торренты? Добавь свой email!
Добавить

Торрент скачать бесплатно

» » Терминатор: Генезис / Terminator Genisys (2015) BDRip 3D [H.264 / 1080p] [Вертикальная анаморфная стереопара] [hand made 16:9] [Line] скачать через торрент бесплатно




    Терминатор: Генезис / Terminator Genisys (2015) BDRip 3D [H.264 / 1080p] [Вертикальная анаморфная стереопара] [hand made 16:9] [Line] скачать через торрент бесплатно

    Опубликовал: Админ | Дата: 5-10-2015, 04:00 | Просмотров: 149

    Производство: США
    Жанр: Фантастика, Боевик, Приключения, Комедия
    Режиссер: Алан Тейлор

    Актеры
    Арнольд Шварценеггер, Джейсон Кларк, Эмилия Кларк, Джай Кортни, Дж.К. Симмонс, Дайо Окенийи, Мэтт Смит, Кортни Б. Вэнс, Ли Бён Хон, Майкл Глэдис.

    Описание

    Когда Джон Коннор, лидер сопротивления, посылает сержанта Кайла Риза назад в 1984 год, чтобы защитить Сару Коннор и спасти будущее, неожиданный поворот событий создает разлом во времени. Сержант Риз оказывается в новой, незнакомой версии прошлого, где он встречает неожиданных союзников, в том числе Терминатора, новых опасных врагов, и новую миссию: изменить будущее…

    Дата мировой премьеры: 21.06.2015
    Дата премьеры в России: 02.07.2015
    Дата выхода DVD/Blu-ray релиза: 22.11.2015

    Продолжительность: 2: 05: 43
    Качество видео: BDRip 3D
    Перевод: Дублированный(Чистый звук)
    Язык субтитров: Английский
    Вид субтитров: Вшитые
    Видео: AVC/H.264, 1920х1080, 9734 Кбит/сек
    Аудио №1: AC3, 6 ch, 640 kbps, CBR | Дублированный
    Аудио №2: AC3, 6 ch, 640 kbps, CBR | Английский
    Семпл: Скачать
    Код:

    Общее
    Полное имя : D:КиноТерминатор 5. Генезис (3D) [crop].mkv
    Формат : Matroska
    Версия формата : Version 4/Version 2
    Размер файла : 9, 87 Гбайт
    Продолжительность : 2 ч. 5 м.
    Общий поток : 11, 2 Мбит/сек
    Название фильма : Терминатор 5. Генезис (3D) [crop]
    Дата кодирования : UTC 2015-09-28 16:06:11
    Программа кодирования : mkvmerge v8.3.0 (\'Over the Horizon\') 64bit
    Библиотека кодирования : libebml v1.3.1 + libmatroska v1.4.2
    DURATION : 02:05:43.008000000
    NUMBER_OF_FRAMES : 235719
    NUMBER_OF_BYTES : 603440640
    _STATISTICS_WRITING_APP : mkvmerge v8.3.0 (\'Over the Horizon\') 64bit
    _STATISTICS_WRITING_DATE_UTC : 2015-09-28 16:06:11
    _STATISTICS_TAGS : BPS DURATION NUMBER_OF_FRAMES NUMBER_OF_BYTES
    Видео
    Идентификатор : 1
    Формат : AVC
    Формат/Информация : Advanced Video Codec
    Профиль формата :High@L4.1
    Параметр CABAC формата : Да
    Параметр ReFrames формата : 2 кадра
    Идентификатор кодека : V_MPEG4/ISO/AVC
    Продолжительность : 2 ч. 5 м.
    Битрейт : 9734 Кбит/сек
    Ширина : 1920 пикселей
    Высота : 1080 пикселей
    Соотношение сторон : 16:9
    Режим частоты кадров : Постоянный
    Частота кадров : 23, 976 кадра/сек
    Цветовое пространство : YUV
    Субдискретизация насыщенности : 4:2:0
    Битовая глубина : 8 бит
    Тип развёртки : Прогрессивная
    Бит/(Пиксели*Кадры) : 0.196
    Размер потока : 8, 55 Гбайт (87%)
    Default : Да
    Forced : Нет
    Аудио #1
    Идентификатор : 2
    Формат : AC-3
    Формат/Информация : Audio Coding 3
    Расширение режима : CM (complete main)
    Параметр Endianness формата : Big
    Идентификатор кодека : A_AC3
    Продолжительность : 2 ч. 5 м.
    Вид битрейта : Постоянный
    Битрейт : 640 Кбит/сек
    Каналы : 6 каналов
    Расположение каналов : Front: L C R, Side: L R, LFE
    Частота : 48, 0 КГц
    Метод сжатия : С потерями
    Размер потока : 575 Мбайт (6%)
    Язык : Russian
    Default : Да
    Forced : Нет
    Аудио #2
    Идентификатор : 3
    Формат : AC-3
    Формат/Информация : Audio Coding 3
    Расширение режима : CM (complete main)
    Параметр Endianness формата : Big
    Идентификатор кодека : A_AC3
    Продолжительность : 2 ч. 5 м.
    Вид битрейта : Постоянный
    Битрейт : 640 Кбит/сек
    Каналы : 6 каналов
    Расположение каналов : Front: L C R, Side: L R, LFE
    Частота : 48, 0 КГц
    Метод сжатия : С потерями
    Размер потока : 575 Мбайт (6%)
    Язык : English
    Default : Нет
    Forced : Нет
    Текст
    Идентификатор : 4
    Формат : UTF-8
    Идентификатор кодека : S_TEXT/UTF8
    Идентификатор кодека/Информация : UTF-8 Plain Text
    Язык : English
    Default : Да
    Forced : Нет


    Скриншоты для ознакомления




    Онлайн видео Терминатор: Генезис



    Терминатор: Генезис/Terminator Genisys (2015) BDRip 3D [H.264/1080p] [Вертикальная анаморфная стереопара] [hand made 16:9] [Line]
    загрузка...
    Рейтинг →
     (голосов: 1, оценка 3/5, голосовать можно 1 раз )

    Другие торренты по теме:

  • Терминатор: Генезис / Terminator: Genisys (2015) WEBRip [1080p] [Трейлер] скачать через торрент бесплатно
  • Терминатор: Генезис / Terminator: Genisys (2015) WEBRip [1080p] [Трейлер] скачать через торрент бесплатно
  • Терминатор: Генезис / Terminator: Genisys (2015) WEBRip [1080p] [Трейлер №2] скачать через торрент бесплатно
  • Терминатор: Генезис / Terminator: Genisys (2015) DCPRip [2K] [Трейлер] скачать через торрент бесплатно
  • Терминатор: Генезис / Terminator: Genisys (2015) CamRip [ES] скачать через торрент бесплатно
  • Терминатор: Генезис / Terminator: Genisys (2015) CamRip скачать через торрент бесплатно
  • Терминатор: Генезис / Terminator: Genisys (2015) CamRip скачать через торрент бесплатно
  • Терминатор: Генезис / Terminator: Genisys (2015) CamRip скачать через торрент бесплатно


    • Комментарии (0):

      Информация

      Информация

        Посетители, находящиеся в группе Гости, не могут оставлять комментарии в данной новости.

        ↓ Меню




        ↓ Опрос

        Вы добавили сайт в закладки?
        Да
        Нет


        Top 10 за месяц (Фильмы)