.
Авторизация | Регистрация
Хочешь лучшие торренты? Добавь свой email!
Добавить

Торрент скачать бесплатно

» » Черный список / The Blacklist (2015) WEB-DLRip (сезон 3, серии 1 из 22) To4ka (обновляемая) скачать через торрент бесплатно




    Черный список / The Blacklist (2015) WEB-DLRip (сезон 3, серии 1 из 22) To4ka (обновляемая) скачать через торрент бесплатно

    Опубликовал: Админ | Дата: 4-10-2015, 04:05 | Просмотров: 96

    Производство: США/Davis Entertainment, Universal Television, Sony Pictures Television
    Жанр: драма, криминал
    Режиссер: Майкл В. Уоткинс, Стивен А. Эделсон, Карен Гавиола

    Актеры
    Джеймс Спэйдер, Меган Бун, Диего Клаттенхофф, Гарри Дж. Ленникс, Хишам Тафик, Райан Игголд, Амир Арисон, Можан Марно, Адриан Ленокс и др.

    Описание

    Один из самых разыскиваемых беглецов ФБР в исполнении Джеймса Спейдера (Секс, ложь и видео, Практика) неожиданно добровольно сдаётся властям. Самодовольный преступник-хитрец начинает играть с ФБР в каверзную многоходовую игру: он обещает помочь федералам поймать опаснейших преступников Америки при условии, что с ним будет работать неопытная сотрудница Лиз Кин. ФБР в лице Гарри Ленникса соглашается на странную сделку не без непредсказуемых последствий.

    Продолжительность: ~00: 43: 00 серия
    Качество видео: WEB-DLRip
    Перевод: Двухголосый закадровый, любительский -To4ka
    Автор перевода: yljka, Wildberry, Pok_L, mayra, Dehus, Nasy
    Видео: XviD, 720х400 (16: 9), ~1186 kb/s
    Аудио Rus: MPEG Layer 3, 48, 0 kHz, 2 ch, 128 kb/s - двухголосый закадровый
    Аудио Eng: MPEG Layer 3, 48, 0 kHz, 2 ch, 128 kb/s - оригинал
    Общее
    Полное имя : D: Черный список (сезон любимого сериала 3) The Blacklist (2015) WEB-DLRip - To4kaThe.Blacklist.s03e01.WEB-DLRip.Rus.Eng.To4ka.avi
    Формат : AVI
    Формат/Информация : Audio Video Interleave
    Размер файла : 450 Мбайт
    Продолжительность : 43 м.
    Общий поток : 1456 Кбит/сек
    Программа кодирования : VirtualDubModRus 1.5.10.2 (build 2542/release)
    Библиотека кодирования : VirtualDubMod build 2542/release
    Видео
    Идентификатор : 0
    Формат : MPEG-4 Visual
    Профиль формата : Advanced Simple@L5
    Параметр BVOP формата : 1
    Параметр QPel формата : Нет
    Параметр GMC формата : Без точки перехода
    Параметр матрицы формата : Default (MPEG)
    Идентификатор кодека : XVID
    Идентификатор кодека/Подсказка : XviD
    Продолжительность : 43 м.
    Битрейт : 1186 Кбит/сек
    Ширина : 720 пикселей
    Высота : 400 пикселей
    Соотношение сторон : 16: 9
    Частота кадров : 23, 976 кадра/сек
    Цветовое пространство : YUV
    Субдискретизация насыщенности : 4: 2: 0
    Битовая глубина : 8 бит
    Тип развёртки : Прогрессивная
    Метод сжатия : С потерями
    Бит/(Пиксели*Кадры) : 0.172
    Размер потока : 367 Мбайт (81%)
    Библиотека кодирования : XviD 73
    Аудио #1
    Идентификатор : 1
    Формат : MPEG Audio
    Версия формата : Version 1
    Профиль формата : Layer 3
    Режим : Joint stereo
    Расширение режима : MS Stereo
    Идентификатор кодека : 55
    Идентификатор кодека/Подсказка : MP3
    Продолжительность : 43 м.
    Вид битрейта : Постоянный
    Битрейт : 128 Кбит/сек
    Каналы : 2 канала
    Частота : 48, 0 КГц
    Метод сжатия : С потерями
    Размер потока : 39, 6 Мбайт (9%)
    Выравнивание : Соединение по промежуткам
    Продолжительность промежутка : 42 мс. (1, 00 видеокадр)
    Время предзагрузки промежутка : 504 мс.
    Аудио #2
    Идентификатор : 2
    Формат : MPEG Audio
    Версия формата : Version 1
    Профиль формата : Layer 3
    Режим : Joint stereo
    Расширение режима : MS Stereo
    Идентификатор кодека : 55
    Идентификатор кодека/Подсказка : MP3
    Продолжительность : 43 м.
    Вид битрейта : Постоянный
    Битрейт : 128 Кбит/сек
    Каналы : 2 канала
    Частота : 48, 0 КГц
    Метод сжатия : С потерями
    Размер потока : 39, 6 Мбайт (9%)
    Выравнивание : Разделение по промежуткам
    Продолжительность промежутка : 42 мс. Самое интересное в это истории, что об этом Европарламент ничего не знал. (1, 00 видеокадр)
    Время предзагрузки промежутка : 500 мс.


    Скриншоты для ознакомления




    Онлайн видео Черный список



    Черный список/The Blacklist (2015) WEB-DLRip (сезон 3, серии 1 из 22) To4ka (обновляемая)
    загрузка...
    Рейтинг →
     (голосов: 1, оценка 5/5, голосовать можно 1 раз )

    Другие торренты по теме:

  • Черный список / The Blacklist (2014) WEB-DLRip (сезон 2, серии 1 из 22) LostFilm (Обновляемая)
  • Черный список / The Blacklist (2014) WEB-DL [H.264 / 1080p-LQ] (Сезон 2, серии 01 из 22) LostFilm (обновляемая)
  • Черный список / The Blacklist (2013-2014) WEB-DLRip (Сезон 1, серии 1-22 из 22) LostFilm
  • Черный список / The Blacklist (2013-2014) WEB-DLRip [H.264 / 1080p-LQ] (Сезон 1, серии 01-22 из 22) LostFilm
  • Черный список (The Blacklist) / (2 Сезон, 1 серии из 22) LostFilm (2014) [MP4|720p-LQ] <WEB-DLRip H.264> (oбновляемая)
  • Черный список / The Blacklist (2014) WEB-DLRip (сезон 2, серии 1 из 22) To4ka (Обновляемая) скачать через торрент бесплатно
  • Черный список / The Blacklist (2014) WEB-DLRip (сезон 2, серии 1 из 22) Sony (Обновляемая) скачать через торрент бесплатно
  • Черный список / The Blacklist (2014) WEB-DLRip (сезон 2, серии 1-18 из 22) Кириллица (обновляемая) скачать через торрент бесплатно


    • Комментарии (0):

      Информация

      Информация

        Посетители, находящиеся в группе Гости, не могут оставлять комментарии в данной новости.

        ↓ Меню




        ↓ Опрос

        Вы добавили сайт в закладки?
        Да
        Нет


        Top 10 за месяц (Фильмы)