.
Авторизация | Регистрация
Хочешь лучшие торренты? Добавь свой email!
Добавить

Торрент скачать бесплатно

» » Город особого назначения (2014) SATRip (серии 1-6 из 12) (обновляемая) скачать через торрент бесплатно




    Город особого назначения (2014) SATRip (серии 1-6 из 12) (обновляемая) скачать через торрент бесплатно

    Опубликовал: Админ | Дата: 4-10-2015, 04:05 | Просмотров: 84

    Производство: Россия/Киногруппа 2План2 по заказу Пятого канала
    Жанр: боевик
    Режиссер: Денис Нейманд

    Актеры
    Игорь Сергеев, Марк Гаврилов, Мария Капустинская, Максим Белбородов, Георгий Маришин, Дмитрий Ткаченко, Глеб Степан Каллистов, Оксана Сырцова, Михаил Шеломенцев, Алина Титова, Марина Даминева, Дмитрий Лебедев, Сергей Сокольский, Наталья Корольская, Инна Ярмошук и др.

    Описание

    Их вызывают в ситуациях, когда другие спецслужбы бессильны. Именно в группе Город и служат наши герои. Их набрали в отряд из других специальных подразделений МВД, ФСБ и армии. Все он прошли тяжелейший отбор и соответствуют жёстким критериям: офицерское звание, идеальное здоровье, психологическая устойчивость, высокий интеллект, способность брать на себя ответственность и проявлять инициативу. Порой за считанные минуты героям приходится рассмотреть все варианты решения проблемы, чтобы выбрать единственно верный путь и обязательно выполнить поставленную задачу.

    Дата премьеры в РФ: 3 октября 2015
    Продолжительность: ~ 00: 45: 00 серия
    Качество видео: SATRip
    Видео: XviD, 720x400 (16: 9), ~1800 kb/s
    Аудио: MPEG Layer 3, 48, 0 kHz, 2 ch, 128 kb/s, CBR
    Общее
    Полное имя : D: Город особого назначения (2015) SATRipGorod.osobogo.naznachenija.01.SATRip.avi
    Формат : AVI
    Формат/Информация : Audio Video Interleave
    Размер файла : 638 Мбайт
    Продолжительность : 46 м.
    Общий поток : 1937 Кбит/сек
    Программа кодирования : VirtualDubMod 1.5.10.3 |www.virtualdub-fr.org|| (build 2550/release)
    Библиотека кодирования : VirtualDubMod build 2550/release
    Видео
    Идентификатор : 0
    Формат : MPEG-4 Visual
    Профиль формата : Advanced Simple@L5
    Параметр BVOP формата : 2
    Параметр QPel формата : Нет
    Параметр GMC формата : Без точки перехода
    Параметр матрицы формата : Default (MPEG)
    Идентификатор кодека : XVID
    Идентификатор кодека/Подсказка : XviD
    Продолжительность : 46 м.
    Битрейт : 1800 Кбит/сек
    Ширина : 720 пикселей
    Высота : 400 пикселей
    Соотношение сторон : 16: 9
    Частота кадров : 25, 000 кадров/сек
    Цветовое пространство : YUV
    Субдискретизация насыщенности : 4: 2: 0
    Битовая глубина : 8 бит
    Тип развёртки : Прогрессивная
    Метод сжатия : С потерями
    Бит/(Пиксели*Кадры) : 0.250
    Размер потока : 593 Мбайт (93%)
    Библиотека кодирования : XviD 1.2.1 (UTC 2008-12-04)
    Аудио
    Идентификатор : 1
    Формат : MPEG Audio
    Версия формата : Version 1
    Профиль формата : Layer 3
    Режим : Joint stereo
    Расширение режима : MS Stereo
    Идентификатор кодека : 55
    Идентификатор кодека/Подсказка : MP3
    Продолжительность : 46 м.
    Вид битрейта : Постоянный
    Битрейт : 128 Кбит/сек
    Каналы : 2 канала
    Частота : 48, 0 КГц
    Метод сжатия : С потерями
    Размер потока : 42, 2 Мбайт (7%)
    Выравнивание : Соединение по промежуткам
    Продолжительность промежутка : 40 мс. (1, 00 видеокадр)
    Время предзагрузки промежутка : 504 мс.
    Библиотека кодирования : LAME3.99r
    Настройки программы : -m j -V 4 -q 2 -lowpass 17 -b 128


    Скриншоты для ознакомления




    Онлайн видео Город особого назначения (2014) SATRip (серии 1



    Город особого назначения (2014) SATRip (серии 1-6 из 12) (обновляемая)
    загрузка...
    Рейтинг →
     (голосов: 1, оценка 3/5, голосовать можно 1 раз )

    Другие торренты по теме:

  • Город особого назначения (2015) DVB [H.264] (серии 1-6 из 12) (обновляемая) скачать через торрент бесплатно


    • Комментарии (0):

      Информация

      Информация

        Посетители, находящиеся в группе Гости, не могут оставлять комментарии в данной новости.

        ↓ Меню




        ↓ Опрос

        Вы добавили сайт в закладки?
        Да
        Нет


        Top 10 за месяц (Фильмы)