.
Авторизация | Регистрация
Хочешь лучшие торренты? Добавь свой email!
Добавить

Торрент скачать бесплатно

» » Золотой век / Elizabeth: The Golden Age (2007) BDRip [H.264 / 720p] скачать через торрент бесплатно




    Золотой век / Elizabeth: The Golden Age (2007) BDRip [H.264 / 720p] скачать через торрент бесплатно

    Опубликовал: Админ | Дата: 3-10-2015, 04:00 | Просмотров: 95

    Производство: Великобритания/Channel Four Films, PolyGram Filmed Entertainment, Working Title Films
    Жанр: Драма, биография, история
    Режиссер: Шекхар Капур

    Актеры
    Кейт Бланшетт, Джорди Молла, Айми Кинг, Джеффри Раш, Клайв Оуэн, Джон Шрэпнел, Сьюзэн Линч, Элиз МакКейв, Саманта Мортон, Эбби Корниш

    Описание

    Фильм является продолжением фильма 1998 года Елизавета.
    Действие фильма разворачивается в 1585 году, католическая Испания во главе с королём Филипом II — одна из самых сильных держав мира того времени. Считая протестантскую Англию угрозой для Испании, а также недовольный частыми нападениями английских пиратов на испанские суда, Филипп разворачивает кампанию по захвату Англии, планируя присоединить её земли к Испании и сделать свою дочь Изабеллу королевой Англии...

    Продолжительность: 01: 54: 51
    Качество видео: BDRip
    Перевод: Дублированный
    Язык субтитров: Русский, английский
    Вид субтитров: Вшитые отключаемые
    Видео: AVC/H.264, 1280Х688, ~5117 kbps
    Аудио#1: AC3, 6 ch, 448 kbps - Дублированный (русский)
    Аудио#2: AC3, 6 ch, 384 kbps - Дублированный (украинский)
    Аудио#3: AC3, 6 ch, 448 kbps - Английский
    Код:

    Общее
    Уникальный идентификатор : 251825135080443749411231216281232896239 (0xBD73C1C0457A661793FDB10587D870EF)
    Полное имя : H:Исторические фильмыЕлизавета. Золотой век_ЕлизаветаЗолотой век_Elizabeth. The Golden Age.BDRip 720p.mkv
    Формат : Matroska
    Версия формата : Version 4/Version 2
    Размер файла : 5, 24 Гбайт
    Продолжительность : 1 ч. 54 м.
    Общий поток : 6527 Кбит/сек
    Название фильма : Release for Topmost
    Дата кодирования : UTC 2015-09-30 04:56:21
    Программа кодирования : mkvmerge v6.2.0 (\'Promised Land\') built on Apr 28 2013 12:22:01
    Библиотека кодирования : libebml v1.3.0 + libmatroska v1.4.0
    Attachment : Yes/Yes
    Видео
    Идентификатор : 1
    Формат : AVC
    Формат/Информация : Advanced Video Codec
    Профиль формата :Main@L5.1
    Параметр CABAC формата : Да
    Параметр ReFrames формата : 1 кадр
    Идентификатор кодека : V_MPEG4/ISO/AVC
    Продолжительность : 1 ч. 54 м.
    Битрейт : 5117 Кбит/сек
    Ширина : 1280 пикселей
    Высота : 688 пикселей
    Соотношение сторон : 1, 85:1
    Режим частоты кадров : Постоянный
    Частота кадров : 23, 976 кадра/сек
    Цветовое пространство : YUV
    Субдискретизация насыщенности : 4:2:0
    Битовая глубина : 8 бит
    Тип развёртки : Прогрессивная
    Бит/(Пиксели*Кадры) : 0.242
    Размер потока : 4, 11 Гбайт (78%)
    Заголовок : Золотой век_Elizabeth: The Golden Age (Release for Topmost)
    Язык : English
    Default : Да
    Forced : Нет
    Аудио #1
    Идентификатор : 2
    Формат : AC-3
    Формат/Информация : Audio Coding 3
    Расширение режима : CM (complete main)
    Параметр Endianness формата : Big
    Идентификатор кодека : A_AC3
    Продолжительность : 1 ч. 54 м.
    Вид битрейта : Постоянный
    Битрейт : 448 Кбит/сек
    Каналы : 6 каналов
    Расположение каналов : Front: L C R, Side: L R, LFE
    Частота : 48, 0 КГц
    Битовая глубина : 16 бит
    Метод сжатия : С потерями
    Размер потока : 368 Мбайт (7%)
    Заголовок : AC3, 6 ch, 448 kbps - Дублированный
    Язык : Russian
    Default : Нет
    Forced : Нет
    Аудио #2
    Идентификатор : 3
    Формат : AC-3
    Формат/Информация : Audio Coding 3
    Расширение режима : CM (complete main)
    Параметр Endianness формата : Big
    Идентификатор кодека : A_AC3
    Продолжительность : 1 ч. 54 м.
    Вид битрейта : Постоянный
    Битрейт : 384 Кбит/сек
    Каналы : 6 каналов
    Расположение каналов : Front: L C R, Side: L R, LFE
    Частота : 48, 0 КГц
    Битовая глубина : 16 бит
    Метод сжатия : С потерями
    Размер потока : 315 Мбайт (6%)
    Заголовок : AC3, 6 ch, 448 kbps - Украинский
    Язык : Ukrainian
    Default : Нет
    Forced : Нет
    Аудио #3
    Идентификатор : 4
    Формат : AC-3
    Формат/Информация : Audio Coding 3
    Расширение режима : CM (complete main)
    Параметр Endianness формата : Big
    Идентификатор кодека : A_AC3
    Продолжительность : 1 ч. 54 м.
    Вид битрейта : Постоянный
    Битрейт : 448 Кбит/сек
    Каналы : 6 каналов
    Расположение каналов : Front: L C R, Side: L R, LFE
    Частота : 48, 0 КГц
    Битовая глубина : 16 бит
    Метод сжатия : С потерями
    Размер потока : 368 Мбайт (7%)
    Заголовок : AC3, 6 ch, 448 kbps - Оригинал
    Язык : English
    Default : Да
    Forced : Нет
    Текст #1
    Идентификатор : 5
    Формат : UTF-8
    Идентификатор кодека : S_TEXT/UTF8
    Идентификатор кодека/Информация : UTF-8 Plain Text
    Язык : Russian
    Default : Да
    Forced : Нет
    Текст #2
    Идентификатор : 6
    Формат : UTF-8
    Идентификатор кодека : S_TEXT/UTF8
    Идентификатор кодека/Информация : UTF-8 Plain Text
    Язык : English
    Default : Нет
    Forced : Нет


    Скриншоты для ознакомления




    Онлайн видео Золотой век



    Золотой век/Elizabeth: The Golden Age (2007) BDRip [H.264/720p]
    загрузка...
    Рейтинг →
     (голосов: 1, оценка 4/5, голосовать можно 1 раз )

    Другие торренты по теме:

  • Книжная серия | Золотой век английского детектива [12 книг] (2013-2014) [FB2] (обновлено 28.09.2014) скачать через торрент бесплатно
  • Золотой граммофон. 19-я Церемония вручения народной премии (Полная версия) (2014.11.29) WEBRip
  • Азамат Ушанов | Золотой Актив 4.0 (2013) HD DVD скачать через торрент бесплатно
  • Юра Шатунов - Золотой альбом (2002) [APE|Lossless]<Pop> скачать через торрент бесплатно
  • Азамат Ушанов | Золотой актив 5.0 (2014) PCRec скачать через торрент бесплатно
  • VA - Золотой граммофон 2015 (2014) [MP3|256 кб / с]<Pop, Dance>
  • Золотой клинок / The Golden Blade (1953) DVDRip [H.264] [VO] скачать через торрент бесплатно
  • Berserk: Ougon Jidai Hen / Berserk: The Golden Age Arc / Берсерк: Золотой век (2012-2013, MV, 3 из 3) BDRemux 1080p raw+rus скачать через торрент бесплатно


    • Комментарии (0):

      Информация

      Информация

        Посетители, находящиеся в группе Гости, не могут оставлять комментарии в данной новости.

        ↓ Меню




        ↓ Опрос

        Вы добавили сайт в закладки?
        Да
        Нет


        Top 10 за месяц (Фильмы)