.
Авторизация | Регистрация
Хочешь лучшие торренты? Добавь свой email!
Добавить

Торрент скачать бесплатно

» » Дедушка / Grandfathered (2015) WEB-DLRip (сезон 1, серии 1 из ) BaibaKo (обновляемая) скачать через торрент бесплатно




    Дедушка / Grandfathered (2015) WEB-DLRip (сезон 1, серии 1 из ) BaibaKo (обновляемая) скачать через торрент бесплатно

    Опубликовал: Админ | Дата: 2-10-2015, 04:00 | Просмотров: 95

    Производство: США/Rhode Island Ave. Productions, Consolidated Chunworks, 20th Century Fox Television
    Жанр: комедия
    Режиссер: Крис Кох

    Актеры
    Джон Стамос, Джош Пек, Пэйджет Брюстер, Кристина Милиан, Келли Дженретт, Рави Патель, Хлоя Доманж, Эбби Уокер, Чести Бальестерос, Майкл С. Браун и др.

    Описание

    Главный герой сериала — мужчина средних лет Джимми. Он довольно красив, любимец женщин, успешный владелец престижного ресторана. Он жил красивой и насыщенной жизнью, в которой не было места для серьёзных отношений, и вообще, его отношение к семье довольно скептическое, он никогда не стремился её создать. Внезапно Джимми узнаёт, что у него есть сын и он уже дедушка. Всё это повергает его в настоящий шок и он не знает как это воспринимать, радоваться или же жить как раньше. В итоге Джимми принимает парня, насколько для него это возможно. Дедушка пытается наладить отношения с внучкой, но у него довольно мало опыта. Их отношения с сыном сложно назвать семейными, но всё же им становится комфортно вместе. Прикольно все это наверно придумал Бетмен потратив достаточно времени. То, чего он так долго избегал, становится важной частью его жизни.

    Дата мировой премьеры: 29 сентября 2015
    Продолжительность: ~00: 22: 00 серия
    Качество видео: WEB-DLRip
    Перевод: Многоголосый закадровый, профессиональный -BaibaKo
    Автор перевода: Фиона Кудреватых
    Озвучка: Светлана Доманова, Anna_Smile, Сергей Корчак и Андрей Корзаченко
    Видео: XviD, 720x400 (16: 9), ~1500 kb/s
    Аудио Rus: MPEG Layer 3, 48, 0 kHz, 2 ch, 192 kb/s — многоголосый закадровый
    Аудио Eng: MPEG Layer 3, 48, 0 kHz, 2 ch, 192 kb/s — оригинал
    Общее
    Полное имя : D: Дедушка (сезон любимого сериала 1) Grandfathered (2015) WEB-DLRip - BaibaKoGrandfathered.s01e01.WEB-DLRip.XviD.Rus.Eng.BaibaKo.tv.avi
    Формат : AVI
    Формат/Информация : Audio Video Interleave
    Размер файла : 294 Мбайт
    Продолжительность : 21 м.
    Общий поток : 1898 Кбит/сек
    Программа кодирования : VirtualDubMod 1.5.10.2 (build 2542/release)
    Библиотека кодирования : VirtualDubMod build 2542/release
    Видео
    Идентификатор : 0
    Формат : MPEG-4 Visual
    Профиль формата : Advanced Simple@L5
    Параметр BVOP формата : 2
    Параметр QPel формата : Нет
    Параметр GMC формата : Без точки перехода
    Параметр матрицы формата : Default (H.263)
    Идентификатор кодека : XVID
    Идентификатор кодека/Подсказка : XviD
    Продолжительность : 21 м.
    Битрейт : 1500 Кбит/сек
    Ширина : 720 пикселей
    Высота : 400 пикселей
    Соотношение сторон : 16: 9
    Частота кадров : 23, 976 кадра/сек
    Цветовое пространство : YUV
    Субдискретизация насыщенности : 4: 2: 0
    Битовая глубина : 8 бит
    Тип развёртки : Прогрессивная
    Метод сжатия : С потерями
    Бит/(Пиксели*Кадры) : 0.217
    Размер потока : 232 Мбайт (79%)
    Библиотека кодирования : XviD 65
    Аудио #1
    Идентификатор : 1
    Формат : MPEG Audio
    Версия формата : Version 1
    Профиль формата : Layer 3
    Режим : Joint stereo
    Расширение режима : MS Stereo
    Идентификатор кодека : 55
    Идентификатор кодека/Подсказка : MP3
    Продолжительность : 21 м.
    Вид битрейта : Постоянный
    Битрейт : 192 Кбит/сек
    Каналы : 2 канала
    Частота : 48, 0 КГц
    Метод сжатия : С потерями
    Размер потока : 29, 7 Мбайт (10%)
    Выравнивание : Соединение по промежуткам
    Продолжительность промежутка : 42 мс. Самое интересное в это истории, что об этом Бетмен ничего не знал. (1, 00 видеокадр)
    Время предзагрузки промежутка : 504 мс.
    Аудио #2
    Идентификатор : 2
    Формат : MPEG Audio
    Версия формата : Version 1
    Профиль формата : Layer 3
    Режим : Joint stereo
    Расширение режима : MS Stereo
    Идентификатор кодека : 55
    Идентификатор кодека/Подсказка : MP3
    Продолжительность : 21 м.
    Вид битрейта : Постоянный
    Битрейт : 192 Кбит/сек
    Каналы : 2 канала
    Частота : 48, 0 КГц
    Метод сжатия : С потерями
    Размер потока : 29, 7 Мбайт (10%)
    Выравнивание : Соединение по промежуткам
    Продолжительность промежутка : 42 мс. Время пошло, сказал кто то из толпы, к чему не понятно. (1, 00 видеокадр)
    Время предзагрузки промежутка : 504 мс.


    Скриншоты для ознакомления




    Онлайн видео Дедушка



    Дедушка/Grandfathered (2015) WEB-DLRip (сезон 1, серии 1 из ) BaibaKo (обновляемая)
    загрузка...
    Рейтинг →
     (голосов: 1, оценка 3/5, голосовать можно 1 раз )

    Другие торренты по теме:

  • Дедушка / Grandfathered (2015) WEB-DL [H.264 / 720p-LQ] (сезон 1, серия 1 из ) (BaibaKo) (обновляемая) скачать через торрент бесплатно
  • Дедушка / Grandfathered (2015) WEB-DLRip (сезон 1, серии 1-12 из 22) BaibaKo (обновляемая)


    • Комментарии (0):

      Информация

      Информация

        Посетители, находящиеся в группе Гости, не могут оставлять комментарии в данной новости.

        ↓ Меню




        ↓ Опрос

        Вы добавили сайт в закладки?
        Да
        Нет


        Top 10 за месяц (Фильмы)