.
Авторизация | Регистрация
Хочешь лучшие торренты? Добавь свой email!
Добавить

Торрент скачать бесплатно

» » Улицы разбитых фонарей / Менты (2015) SATRip (сезон 15, серии 1-4 из 24) (обновляемая) скачать через торрент бесплатно




    Улицы разбитых фонарей / Менты (2015) SATRip (сезон 15, серии 1-4 из 24) (обновляемая) скачать через торрент бесплатно

    Опубликовал: Админ | Дата: 30-09-2015, 04:00 | Просмотров: 166

    Производство: Россия/Прогресс-Студия, ООО Форвард-Фильм
    Жанр: боевик, драма, криминал, приключения
    Режиссер: Виктор Шкуратов, Александр Глинский, Юрий Владовский

    Актеры
    Александр Половцев, Михаил Трухин, Олег Андреев, Михаил Лучко, Андрей Зибров, Борис Клюев, Елена Купрашевич, Антон Багров, Александр Нестеров, Борис Чердынцев, Алексей Семёнов, Алексей Телеш, Игорь Ключников и др.

    Описание

    Который год в петербургском межрайонном убойном отделе продолжает кипеть напряженная жизнь, не давая героям расслабиться ни на минуту! Несмотря на постоянную нехватку рабочих кадров, оперативникам удается не только уверенно держать первое место в городе по раскрываемости, но и постоянно выполнять самые неожиданные приказы руководства – будь то помощь отделу квартирных краж или выявление наркоточек в разных районах.

    Продолжительность: ~ 00: 46: 00 серия
    Качество видео: SATRip
    Видео: XviD, 720x400, ~1800 kbps
    Аудио: MPEG Layer 3, 48.0 kHz, 2 ch, 128 kbps, CBR
    General
    Complete name : D: менты-15Ulicy.razbityh.fonarej-15.01.SATRip.avi
    Format : AVI
    Format/Info : Audio Video Interleave
    File size : 637 MiB
    Duration : 45mn 59s
    Overall bit rate : 1 938 Kbps
    Writing application : VirtualDubMod 1.5.10.3 |www.virtualdub-fr.org|| (build 2550/release)
    Writing library : VirtualDubMod build 2550/release
    Video
    ID : 0
    Format : MPEG-4 Visual
    Format profile : Advanced Simple@L5
    Format settings, BVOP : 2
    Format settings, QPel : No
    Format settings, GMC : No warppoints
    Format settings, Matrix : Default (MPEG)
    Codec ID : XVID
    Codec ID/Hint : XviD
    Duration : 45mn 59s
    Bit rate : 1 800 Kbps
    Width : 720 pixels
    Height : 400 pixels
    Display aspect ratio : 16: 9
    Frame rate : 25.000 fps
    Color space : YUV
    Chroma subsampling : 4: 2: 0
    Bit depth : 8 bits
    Scan type : Progressive
    Compression mode : Lossy
    Bits/(Pixel*Frame) : 0.250
    Stream size : 592 MiB (93%)
    Writing library : XviD 1.2.1 (UTC 2008-12-04)
    Audio
    ID : 1
    Format : MPEG Audio
    Format version : Version 1
    Format profile : Layer 3
    Mode : Joint stereo
    Mode extension : MS Stereo
    Codec ID : 55
    Codec ID/Hint : MP3
    Duration : 45mn 58s
    Bit rate mode : Constant
    Bit rate : 128 Kbps
    Channel(s) : 2 channels
    Sampling rate : 48.0 KHz
    Compression mode : Lossy
    Stream size : 42.1 MiB (7%)
    Alignment : Aligned on interleaves
    Interleave, duration : 40 ms (1.00 video frame)
    Interleave, preload duratio : 504 ms
    Writing library : LAME3.99r
    Encoding settings : -m j -V 4 -q 2 -lowpass 17 -b 128


    Скриншоты для ознакомления




    Онлайн видео Улицы разбитых фонарей



    Улицы разбитых фонарей/Менты (2015) SATRip (сезон 15, серии 1-4 из 24) (обновляемая)
    загрузка...
    Рейтинг →
     (голосов: 1, оценка 4/5, голосовать можно 1 раз )

    Другие торренты по теме:

  • Улицы разбитых фонарей-14 (2015) SATRip (сезон 14, серия 1-3 из 40) (обновляемая) скачать через торрент бесплатно
  • Улицы разбитых фонарей / Менты (2017) SATRip (сезон 16, серии 1-6 из 36) (обновляемая)
  • Улицы разбитых фонарей / Менты (2015) SATRip (сезон 15, серии 1-32 из 40) (Обновляемая)
  • Улицы разбитых фонарей / Менты (2015) HDTVRip (сезон 15, серии 1-40 из 40)
  • Елена Малиновская | Улицы разбитых артефактов. Череп в холодильнике (2017) [FB2]


    • Комментарии (0):

      Информация

      Информация

        Посетители, находящиеся в группе Гости, не могут оставлять комментарии в данной новости.

        ↓ Меню




        ↓ Опрос

        Вы добавили сайт в закладки?
        Да
        Нет


        Top 10 за месяц (Фильмы)