.
Авторизация | Регистрация
Хочешь лучшие торренты? Добавь свой email!
Добавить

Торрент скачать бесплатно

» » Любопытная Варвара-3 (2015) SATRip [H.264] (серии 1-2 из 8) (обновляемая) скачать через торрент бесплатно




    Любопытная Варвара-3 (2015) SATRip [H.264] (серии 1-2 из 8) (обновляемая) скачать через торрент бесплатно

    Опубликовал: Админ | Дата: 29-09-2015, 04:00 | Просмотров: 91

    Производство: Россия, ООО Продюсерский центр ПРО100 ФИЛЬМ
    Жанр: Детектив, Комедия
    Режиссер: Андрей Силкин

    Актеры
    Елена Яковлева, Максим Емельянов, Дмитрий Мазуров, Александр Печенин, Екатерина Шевченко, Михаил Куряев, Юрий Нифонтов, Анастасия Шалонько, Арина Постникова, Веста Буркот, Сергей Баталов, Никита Смольянинов

    Описание

    Ради торжества правды и для защиты безвинно обижаемых Варвара снова проявляет недюжинные детективные способности, раскрывая преступные замыслы и криминальные интриги. А следователю Сергею Сафронову придется откровенно ревновать. Вот только понять бы, к чему больше – к ее любимому сыскному хобби или к директору турбазы, который, как назло, оказывается старым знакомым Варвары, а заодно и ее новоиспеченным ухажером…

    Дата премьеры в России: 28 сентября 2015 (ТВЦ)
    Продолжительность: ~ 00: 45: 00 серия
    Качество видео: SATRip
    Видео: AVC/H.264, 720x400, ~1492 Кбит/сек
    Аудио: AC3, 2 ch, 192 Кбит/сек, CBR
    Код:
    Общее
    Уникальный идентификатор : 188517635320145227432976566517754963578 (0x8DD32D072E2E03C2BD69096AB7F3267A)
    Полное имя : F:Любопытная Варвара-31 серия.mkv
    Формат : Matroska
    Версия формата : Version 2
    Размер файла : 550 Мбайт
    Продолжительность : 45 м.
    Общий поток : 1686 Кбит/сек
    Дата кодирования : UTC 2015-09-28 15:29:10
    Программа кодирования : mkvmerge v7.8.0 (\'River Man\') 32bit built on Apr 3 2015 12:11:22
    Библиотека кодирования : libebml v1.3.1 + libmatroska v1.4.2
    Видео
    Идентификатор : 1
    Формат : AVC
    Формат/Информация : Advanced Video Codec
    Профиль формата :High@L4.1
    Параметр CABAC формата : Да
    Параметр ReFrames формата : 9 кадров
    Идентификатор кодека : V_MPEG4/ISO/AVC
    Продолжительность : 45 м.
    Битрейт : 1492 Кбит/сек
    Ширина : 720 пикселей
    Высота : 400 пикселей
    Соотношение сторон : 16:9
    Режим частоты кадров : Постоянный
    Частота кадров : 25, 000 кадров/сек
    Цветовое пространство : YUV
    Субдискретизация насыщенности : 4:2:0
    Битовая глубина : 8 бит
    Тип развёртки : Прогрессивная
    Бит/(Пиксели*Кадры) : 0.207
    Размер потока : 477 Мбайт (87%)
    Библиотека кодирования : x264 core 146 r2538 121396c
    Настройки программы : cabac=1/ref=9/deblock=1:-2:-2/analyse=0x3:0x133/me=umh/subme=9/psy=1/psy_rd=1.00:0.00/mixed_ref=0/me_range=32/chroma_me=1/trellis=2/8x8dct=1/cqm=0/deadzone=21, 11/fast_pskip=1/chroma_qp_offset=-2/threads=6/lookahead_threads=4/sliced_threads=0/nr=0/decimate=1/interlaced=0/bluray_compat=0/constrained_intra=0/bframes=9/b_pyramid=2/b_adapt=1/b_bias=0/direct=3/weightb=1/open_gop=0/weightp=2/keyint=250/keyint_min=25/scenecut=40/intra_refresh=0/rc_lookahead=40/rc=2pass/mbtree=1/bitrate=1492/ratetol=1.0/qcomp=0.60/qpmin=0/qpmax=69/qpstep=4/cplxblur=20.0/qblur=0.5/ip_ratio=1.40/aq=1:1.00
    Default : Да
    Forced : Нет
    Цветовой диапазон : Limited
    Основные цвета : BT.601 PAL
    Характеристики трансфера : BT.470 System B, BT.470 System G
    Коэффициенты матрицы : BT.601
    Аудио
    Идентификатор : 2
    Формат : AC-3
    Формат/Информация : Audio Coding 3
    Расширение режима : CM (complete main)
    Параметр Endianness формата : Big
    Идентификатор кодека : A_AC3
    Продолжительность : 45 м.
    Вид битрейта : Постоянный
    Битрейт : 192 Кбит/сек
    Каналы : 2 канала
    Расположение каналов : Front: L R
    Частота : 48, 0 КГц
    Метод сжатия : С потерями
    Размер потока : 62, 7 Мбайт (11%)
    Default : Да
    Forced : Нет


    Скриншоты для ознакомления




    Онлайн видео Любопытная Варвара



    Любопытная Варвара-3 (2015) SATRip [H.264] (серии 1-2 из 8) (обновляемая)
    загрузка...
    Рейтинг →
     (голосов: 1, оценка 5/5, голосовать можно 1 раз )

    Другие торренты по теме:

  • Любопытная Варвара (2014) SATRip [сезон 2, серии 1-4 из 8] (Обновляемая)
  • Любопытная Варвара (2012) DVDRip (серии 1-8 из 8)
  • Любопытная Варвара (2014) WEB-DLRip [H.264 / 1080p-LQ] (Сезон 2, серии 1-8 из 8)
  • Любопытная Варвара (2014) WEB-DLRip [H.264 / 720p-LQ] (Сезон 2, серии 1-8 из 8)
  • Любопытная Варвара (2015) WEB-DLRip [H.264 / 720p-LQ] (сезон 3, серии 1-4 из 8) (обновляемая) скачать через торрент бесплатно
  • Любопытная Варвара (2015) WEB-DLRip [H.264 / 1080p-LQ] (сезон 3, серии 1-4 из 8) (обновляемая) скачать через торрент бесплатно
  • Любопытная Варвара (2012) WEB-DLRip [H.264 / 1080p-LQ] (сезон 1, серии 1-8 из 8) скачать через торрент бесплатно
  • Любопытная Варвара (2012) WEB-DLRip [H.264 / 720p-LQ] (сезон 1, серии 1-8 из 8) скачать через торрент бесплатно


    • Комментарии (0):

      Информация

      Информация

        Посетители, находящиеся в группе Гости, не могут оставлять комментарии в данной новости.

        ↓ Меню




        ↓ Опрос

        Вы добавили сайт в закладки?
        Да
        Нет


        Top 10 за месяц (Фильмы)