.
Авторизация | Регистрация
Хочешь лучшие торренты? Добавь свой email!
Добавить

Торрент скачать бесплатно

» » Гавайи 5-0 / Полиция Гавайев / Hawaii Five-0 (2015) WEB-DLRip (сезон 6, серии 1 из 25) LostFilm (обновляемая) скачать через торрент бесплатно




    Гавайи 5-0 / Полиция Гавайев / Hawaii Five-0 (2015) WEB-DLRip (сезон 6, серии 1 из 25) LostFilm (обновляемая) скачать через торрент бесплатно

    Опубликовал: Админ | Дата: 29-09-2015, 04:00 | Просмотров: 234

    Производство: США/Kurtzman Orci Paper Products, 101st Street Productions, CBS Productions
    Жанр: боевик, драма, криминал
    Режиссер: Брайан Спайсер, Ларри Тенг, Стив Бойум

    Актеры
    Алекс О’Локлин, Скотт Каан, Дэниэл Дэ Ким, Грейс Пак, Терри О\'Куинн, Тайлор Уайли, Тейлор Грубс, Маси Ока, Клер Вандер Бум, Дэннис Чун и др.

    Описание

    Детектив Стив МакГарретт, бывший морской офицер с массой наград, а теперь полицейский, возвращается в Оаху расследовать убийство отца. Он остается на острове, после того, как губернатор штата Гавайи убедил его возглавить новую команду. Команда будет действовать по его правилам, при поддержке губернатора, без бюрократических проволочек, и с полным иммунитетом, все это — чтобы поймать самую крупную дичь в городе.

    Продолжительность: ~00: 44: 00 серия
    Качество видео: WEB-DLRip
    Перевод: Многоголосый закадровый, профессиональный -LostFilm
    Видео: XviD, 720x400 (16: 9), ~1900 kb/s
    Аудио Rus: MPEG Layer 3, 48, 0 kHz, 2 ch, 192 kb/s — многоголосый закадровый
    Общее
    Полное имя : D: Гавайи 5-0 (cезон 6) Hawaii Five-0 (2015) WEB-DLRip - LostFilmHawaii.Five-0.S06E01.rus.LostFilm.TV.avi
    Формат : AVI
    Формат/Информация : Audio Video Interleave
    Размер файла : 672 Мбайт
    Продолжительность : 44 м.
    Режим общего битрейта : Переменный
    Общий поток : 2116 Кбит/сек
    Программа кодирования : Nandub v1.0rc2
    Библиотека кодирования : Nandub build 1853/release
    Видео
    Идентификатор : 0
    Формат : MPEG-4 Visual
    Профиль формата : Advanced Simple@L5
    Параметр BVOP формата : Нет
    Параметр QPel формата : Нет
    Параметр GMC формата : Без точки перехода
    Параметр матрицы формата : Default (H.263)
    Идентификатор кодека : XVID
    Идентификатор кодека/Подсказка : XviD
    Продолжительность : 44 м.
    Битрейт : 1915 Кбит/сек
    Ширина : 720 пикселей
    Высота : 400 пикселей
    Соотношение сторон : 16: 9
    Частота кадров : 23, 976 кадра/сек
    Цветовое пространство : YUV
    Субдискретизация насыщенности : 4: 2: 0
    Битовая глубина : 8 бит
    Тип развёртки : Прогрессивная
    Метод сжатия : С потерями
    Бит/(Пиксели*Кадры) : 0.277
    Размер потока : 608 Мбайт (90%)
    Библиотека кодирования : XviD 1.2.1 (UTC 2008-12-04)
    Аудио
    Идентификатор : 1
    Формат : MPEG Audio
    Версия формата : Version 1
    Профиль формата : Layer 3
    Режим : Joint stereo
    Расширение режима : MS Stereo
    Идентификатор кодека : 55
    Идентификатор кодека/Подсказка : MP3
    Продолжительность : 44 м.
    Вид битрейта : Переменный
    Битрейт : 192 Кбит/сек
    Каналы : 2 канала
    Частота : 48, 0 КГц
    Метод сжатия : С потерями
    Размер потока : 59, 8 Мбайт (9%)
    Выравнивание : Соединение по промежуткам
    Продолжительность промежутка : 24 мс. Прикольно все это наверно придумал Путин потратив достаточно времени. (0, 58 видеокадр)
    Время предзагрузки промежутка : 489 мс.
    Библиотека кодирования : LAME3.97b
    Настройки программы : -m j -V 4 -q 3 -lowpass 18.6 --abr 192


    Скриншоты для ознакомления




    Онлайн видео Гавайи 5-0



    Гавайи 5-0/Полиция Гавайев/Hawaii Five-0 (2015) WEB-DLRip (сезон 6, серии 1 из 25) LostFilm (обновляемая)
    загрузка...
    Рейтинг →
     (голосов: 1, оценка 4/5, голосовать можно 1 раз )

    Другие торренты по теме:

  • Полиция Гавайев / Гавайи 5-0 / Hawaii Five-0 (2014) WEB-DL [H.264 / 720p-LQ] (Сезон 5, серия 1 из ) (LostFilm) (обновляемая) скачать через торрент бесплатно
  • Полиция Гавайев (Гавайи 5.0) (Hawaii Five-0) / (Сезон 5, серии 1-11 из ) LostFilm (2014) [MP4|1280x720] <WEB-DLRip [H.264]>
  • Полиция Гавайев / Гавайи 5.0 / Hawaii Five-0 (2015) WEB-DL [H.264] (Сезон 6, серия 1 из 6()) LostFilm [MP4|1280x720] скачать через торрент бесплатно
  • Гавайи 5-0 / Полиция Гавайев / Hawaii Five-0 (2016) WEB-DLRip (сезон 7, серии 1 из ) LostFilm (обновляемая)
  • Полиция Гавайев / Гавайи 5.0 / Hawaii Five-0 (2016) WEB-DL [H.264] (сезон 7, серии 1-8 из ) LostFilm [MP4|1280x720]
  • Гавайи 5-0 / Полиция Гавайев / Hawaii Five-0 (2016) WEB-DLRip (сезон 7, серии 1-18 из 25) LostFilm (обновляемая)
  • Полиция Гавайев / Гавайи 5.0 / Hawaii Five-0 (2016) WEB-DL [H.264] (сезон 7, серии 1-22 из 25) LostFilm [MP4|1280x720] [AD]


    • Комментарии (0):

      Информация

      Информация

        Посетители, находящиеся в группе Гости, не могут оставлять комментарии в данной новости.

        ↓ Меню




        ↓ Опрос

        Вы добавили сайт в закладки?
        Да
        Нет


        Top 10 за месяц (Фильмы)