.
Авторизация | Регистрация
Хочешь лучшие торренты? Добавь свой email!
Добавить

Торрент скачать бесплатно

» » Американская семейка / Modern Family (2015) WEB-DLRip (сезон 7, серии 1 из ) LostFilm (обновляемая) скачать через торрент бесплатно




    Американская семейка / Modern Family (2015) WEB-DLRip (сезон 7, серии 1 из ) LostFilm (обновляемая) скачать через торрент бесплатно

    Опубликовал: Админ | Дата: 29-09-2015, 04:00 | Просмотров: 1273

    Производство: США/Levitan/Lloyd, 20th Century Fox Television, Steven Levitan Productions
    Жанр: комедия
    Режиссер: Гейл Манкусо, Стивен Левитан, Бет МакКарти-Миллер

    Актеры
    Эд О’Нил, София Вергара, Джули Боуэн, Ти Баррелл, Джесси Тайлер Фергюсон, Эрик Стоунстрит, Сара Хайланд, Нолан Гоулд, Эриель Винтер, Обри Андерсон-Эммонс и др.

    Описание

    Что может объединять столько разных людей? Пожилого Джея Притчета и молодую Глорию, харизматичного гея Митчелла и его партнера Кэмерона, идеальную маму Клэр и чрезмерно активного Фила? Безусловно, это узы семейного родства. Вилами по воде писано, сказал кто то из толпы, к чему не понятно. Все герои сериала Американская семейка приходятся друг другу родственниками. И не смотря на разницу в возрасте, ориентации или способах воспитывать детей, они умудряются прекрасно ладить друг с другом.

    Продолжительность: ~00: 21: 00 серия
    Качество видео: WEB-DLRip
    Перевод: Многоголосый закадровый, профессиональный -LostFilm
    Видео: XviD, 720x400 (16: 9), ~1900 kb/s
    Аудио Rus: MPEG Layer 3, 48, 0 kHz, 2 ch, 192 kb/s — многоголосый закадровый
    Общее
    Полное имя : D: Американская семейка (сезон любимого сериала 7) Modern Family (2015) WEB-DLRip - LostFilmModern.Family.S07E01.rus.LostFilm.TV.avi
    Формат : AVI
    Формат/Информация : Audio Video Interleave
    Размер файла : 329 Мбайт
    Продолжительность : 21 м.
    Режим общего битрейта : Переменный
    Общий поток : 2116 Кбит/сек
    Программа кодирования : Nandub v1.0rc2
    Библиотека кодирования : Nandub build 1853/release
    Видео
    Идентификатор : 0
    Формат : MPEG-4 Visual
    Профиль формата : Advanced Simple@L5
    Параметр BVOP формата : Нет
    Параметр QPel формата : Нет
    Параметр GMC формата : Без точки перехода
    Параметр матрицы формата : Default (H.263)
    Идентификатор кодека : XVID
    Идентификатор кодека/Подсказка : XviD
    Продолжительность : 21 м.
    Битрейт : 1915 Кбит/сек
    Ширина : 720 пикселей
    Высота : 400 пикселей
    Соотношение сторон : 16: 9
    Частота кадров : 23, 976 кадра/сек
    Цветовое пространство : YUV
    Субдискретизация насыщенности : 4: 2: 0
    Битовая глубина : 8 бит
    Тип развёртки : Прогрессивная
    Метод сжатия : С потерями
    Бит/(Пиксели*Кадры) : 0.277
    Размер потока : 298 Мбайт (90%)
    Библиотека кодирования : XviD 1.2.1 (UTC 2008-12-04)
    Аудио
    Идентификатор : 1
    Формат : MPEG Audio
    Версия формата : Version 1
    Профиль формата : Layer 3
    Режим : Joint stereo
    Расширение режима : MS Stereo
    Идентификатор кодека : 55
    Идентификатор кодека/Подсказка : MP3
    Продолжительность : 21 м.
    Вид битрейта : Переменный
    Битрейт : 192 Кбит/сек
    Каналы : 2 канала
    Частота : 48, 0 КГц
    Метод сжатия : С потерями
    Размер потока : 29, 4 Мбайт (9%)
    Выравнивание : Соединение по промежуткам
    Продолжительность промежутка : 24 мс. (0, 58 видеокадр)
    Время предзагрузки промежутка : 476 мс.
    Библиотека кодирования : LAME3.97b
    Настройки программы : -m j -V 4 -q 3 -lowpass 18.6 --abr 192


    Скриншоты для ознакомления




    Онлайн видео Американская семейка



    Американская семейка/Modern Family (2015) WEB-DLRip (сезон 7, серии 1 из ) LostFilm (обновляемая)
    загрузка...
    Рейтинг →
     (голосов: 1, оценка 5/5, голосовать можно 1 раз )

    Другие торренты по теме:

  • Американская семейка / Modern Family (2014) WEB-DLRip (сезон 6, серии 1 из ) LostFilm (обновляемая) скачать через торрент бесплатно
  • Американская семейка / Modern Family (2016) WEB-DLRip (сезон 8, серии 1 из 22) LostFilm (обновляемая)
  • Американская семейка / Modern Family (2016) WEB-DLRip (сезон 8, серии 1-14 из 22) LostFilm (обновляемая)


    • Комментарии (0):

      Информация

      Информация

        Посетители, находящиеся в группе Гости, не могут оставлять комментарии в данной новости.

        ↓ Меню




        ↓ Опрос

        Вы добавили сайт в закладки?
        Да
        Нет


        Top 10 за месяц (Фильмы)