.
Авторизация | Регистрация
Хочешь лучшие торренты? Добавь свой email!
Добавить

Торрент скачать бесплатно

» » Теория Большого Взрыва / The Big Bang Theory (2015) HDTVRip [H.264 / 1080p-LQ] (сезон 9, серии 1 из 24) Кураж-Бамбей (обновляемая) скачать через торрент бесплатно




    Теория Большого Взрыва / The Big Bang Theory (2015) HDTVRip [H.264 / 1080p-LQ] (сезон 9, серии 1 из 24) Кураж-Бамбей (обновляемая) скачать через торрент бесплатно

    Опубликовал: Админ | Дата: 27-09-2015, 04:01 | Просмотров: 109

    Производство: США
    Жанр: комедия
    Режиссер: Марк Сендроуски

    Актеры
    Джонни Галекки, Джим Парсонс, Кейли Куоко, Саймон Хельберг, Кунал Найяр и др.

    Описание

    Два блестящих физика, Леонард и Шелдон, великие умы, которые понимают, как работает вселенная. Но их гениальность ничуть не помогает им общаться с людьми, особенно с женщинами. Всё начинает меняться, когда напротив них поселяется красавица Пенни.
    Когда Леонард и Шелдон встречают Пенни, Леонард сразу же начинает интересоваться ею. О таком странном сюжете не догадывалась даже Настя Каменских. Он видит в общении с Пенни огромную перспективу, вплоть до любви, однако Шелдон понимает, что мечтам его друга не суждено сбыться.
    Стоит также отметить пару странных друзей этих физиков: Воловиц, который любит употреблять фразы на разных языках, включая русский, и Раджеш Кутрапали, теряющий дар речи при виде женщин.

    Продолжительность: ~00: 21: 00 серия
    Качество видео: HDTVRip
    Перевод: Одноголосый закадровый, профессиональный - Кураж-Бамбей
    Вид субтитров: вшитые отключаемые
    Язык субтитров: английский
    Видео: AVC/H.264, 1920x1066, ~7108 Кбит/сек
    Аудио №1 Rus: AC3 5.1, 448 Kbps, 6 ch, 48.0 KHz - одноголосый закадровый
    Аудио №2 Eng: AC3 5.1, 384 Kbps, 6 ch, 48.0 KHz - оригинал
    Код:

    Общее
    Уникальный идентификатор : 234839532766136285877491019423213476509 (0xB0AC72E664A76D35BAB48FFC5C28DA9D)
    Полное имя : H:TorrentTBBTThe.Big.Bang.Theory.S09.1080pThe.Big.Bang.Theory.S09E01.1080p.mkv
    Формат : Matroska
    Версия формата : Version 4/Version 2
    Размер файла : 1, 16 Гбайт
    Продолжительность : 20 м.
    Общий поток : 8102 Кбит/сек
    Дата кодирования : UTC 2015-09-25 21:21:23
    Программа кодирования : mkvmerge v8.2.0 (\'World of Adventure\') 64bit
    Библиотека кодирования : libebml v1.3.1 + libmatroska v1.4.2
    DURATION : 00:20:08.649000000
    NUMBER_OF_FRAMES : 456
    NUMBER_OF_BYTES : 14133
    _STATISTICS_WRITING_APP : mkvmerge v8.2.0 (\'World of Adventure\') 64bit
    _STATISTICS_WRITING_DATE_UTC : 2015-09-25 21:21:23
    _STATISTICS_TAGS : BPS DURATION NUMBER_OF_FRAMES NUMBER_OF_BYTES
    Видео
    Идентификатор : 1
    Формат : AVC
    Формат/Информация : Advanced Video Codec
    Профиль формата :High@L4.1
    Параметр CABAC формата : Да
    Параметр ReFrames формата : 4 кадра
    Идентификатор кодека : V_MPEG4/ISO/AVC
    Продолжительность : 20 м.
    Битрейт : 7108 Кбит/сек
    Ширина : 1920 пикселей
    Высота : 1066 пикселей
    Соотношение сторон : 16:9
    Режим частоты кадров : Постоянный
    Частота кадров : 23, 976 кадра/сек
    Цветовое пространство : YUV
    Субдискретизация насыщенности : 4:2:0
    Битовая глубина : 8 бит
    Тип развёртки : Прогрессивная
    Бит/(Пиксели*Кадры) : 0.145
    Размер потока : 1, 02 Гбайт (88%)
    Библиотека кодирования : x264 core 148 r2597 e86f3a1
    Настройки программы : cabac=1/ref=4/deblock=1:-2:-2/analyse=0x3:0x113/me=umh/subme=9/psy=1/psy_rd=1.00:0.00/mixed_ref=1/me_range=24/chroma_me=1/trellis=1/8x8dct=1/cqm=0/deadzone=21, 11/fast_pskip=0/chroma_qp_offset=-2/threads=18/lookahead_threads=2/sliced_threads=0/nr=0/decimate=1/interlaced=0/bluray_compat=0/constrained_intra=0/bframes=5/b_pyramid=2/b_adapt=2/b_bias=0/direct=3/weightb=1/open_gop=0/weightp=2/keyint=250/keyint_min=23/scenecut=40/intra_refresh=0/rc_lookahead=50/rc=crf/mbtree=1/crf=17.0/qcomp=0.60/qpmin=0/qpmax=69/qpstep=4/ip_ratio=1.40/aq=1:1.00
    Язык : English
    Default : Нет
    Forced : Нет
    DURATION : 00:20:30.897000000
    NUMBER_OF_FRAMES : 29512
    NUMBER_OF_BYTES : 1118339218
    _STATISTICS_WRITING_APP : mkvmerge v8.2.0 (\'World of Adventure\') 64bit
    _STATISTICS_WRITING_DATE_UTC : 2015-09-25 21:21:23
    _STATISTICS_TAGS : BPS DURATION NUMBER_OF_FRAMES NUMBER_OF_BYTES
    Аудио #1
    Идентификатор : 2
    Формат : AC-3
    Формат/Информация : Audio Coding 3
    Расширение режима : CM (complete main)
    Параметр Endianness формата : Big
    Идентификатор кодека : A_AC3
    Продолжительность : 20 м.
    Вид битрейта : Постоянный
    Битрейт : 448 Кбит/сек
    Каналы : 6 каналов
    Расположение каналов : Front: L C R, Side: L R, LFE
    Частота : 48, 0 КГц
    Битовая глубина : 16 бит
    Метод сжатия : С потерями
    Размер потока : 65, 7 Мбайт (6%)
    Заголовок : Kuraj-Bambey_by_YmNIK13_for_nnm-club
    Язык : Russian
    Default : Да
    Forced : Да
    Аудио #2
    Идентификатор : 3
    Формат : AC-3
    Формат/Информация : Audio Coding 3
    Расширение режима : CM (complete main)
    Параметр Endianness формата : Big
    Идентификатор кодека : A_AC3
    Продолжительность : 20 м.
    Вид битрейта : Постоянный
    Битрейт : 384 Кбит/сек
    Каналы : 6 каналов
    Расположение каналов : Front: L C R, Side: L R, LFE
    Частота : 48, 0 КГц
    Битовая глубина : 16 бит
    Метод сжатия : С потерями
    Задержка видео : 100 мс.
    Размер потока : 56, 4 Мбайт (5%)
    Заголовок : DD5.1
    Язык : English
    Default : Нет
    Forced : Нет
    Текст
    Идентификатор : 4
    Формат : UTF-8
    Идентификатор кодека : S_TEXT/UTF8
    Идентификатор кодека/Информация : UTF-8 Plain Text
    Заголовок : tvsubtitles.ru
    Язык : English
    Default : Да
    Forced : Нет


    Скриншоты для ознакомления




    Теория Большого Взрыва/The Big Bang Theory (2015) HDTVRip [H.264/1080p-LQ] (сезон 9, серии 1 из 24) Кураж-Бамбей (обновляемая)
    загрузка...
    Рейтинг →
     (голосов: 1, оценка 5/5, голосовать можно 1 раз )

    Другие торренты по теме:

  • Теория Большого Взрыва / The Big Bang Theory (2014) HDTVRip, [H.264 / 720p-LQ], (Сезон 8, Серии 1-2 из 24) [Прыг-Скок] (обновляемая)
  • Теория Большого Взрыва / The Big Bang Theory (2014) HDTVRip [H.264 / 720p-LQ] (Сезон 8, серии 1-2 из 24) [En En, Ru Sub] (обновляемая)
  • Теория большого взрыва / The Big Bang Theory (2014) WEB-DL [H.264 / 1080p-LQ] (сезон 8, серии 1-2 из 24) Кураж-Бамбей (обновляемая)
  • Теория Большого Взрыва / The Big Bang Theory (2014) WEB-DL [H.264 / 1080p-LQ] (Сезон 8, Серия 1-2 из 24) [Кураж-Бамбей] (Обновляемая)
  • Теория Большого Взрыва / The Big Bang Theory (2014) WEB-DL [H.264 / 720p-LQ] (Сезон 8, серии 1-3 из 24) (Кураж-Бамбей) (обновляемая) скачать через торрент бесплатно
  • Теория большого взрыва / The Big Bang Theory (2014) WEB-DL [H.264 / 720p-LQ] [Сезон 8, Серии 1-7 из 24] (DekinStudio) (обновляемая) скачать через торрент бесплатно
  • Теория большого взрыва / The Big Bang Theory (2013) BDRemux [1080p] (сезон 7, серии 1-24 из 24) [Кураж-Бамбей]
  • Теория большого взрыва / The Big Bang Theory (2010) BDRemux [1080p] (сезон 3, серии 1-23 из 23) (Кураж-Бамбей, СТС) скачать через торрент бесплатно


    • Комментарии (0):

      Информация

      Информация

        Посетители, находящиеся в группе Гости, не могут оставлять комментарии в данной новости.

        ↓ Меню




        ↓ Опрос

        Вы добавили сайт в закладки?
        Да
        Нет


        Top 10 за месяц (Фильмы)