.
Авторизация | Регистрация
Хочешь лучшие торренты? Добавь свой email!
Добавить

Торрент скачать бесплатно

» » Злой мозг из далёкого космоса / Evil Brain From Outer Space (1964) DVDRip скачать через торрент бесплатно




    Злой мозг из далёкого космоса / Evil Brain From Outer Space (1964) DVDRip скачать через торрент бесплатно

    Опубликовал: Админ | Дата: 27-09-2015, 04:00 | Просмотров: 91

    Производство: США, Япония, Fuji Eiga Company, Shintoho Film Distribution Committee, Walter Manley
    Жанр: Фантастика, Приключения, Семейный
    Режиссер: Тэуро Иший, Акира Митсува, Кореёши Акасака

    Актеры
    Кен Ютсуй, Сачихира Ошава, Джунко Икеючи

    Описание

    Вселенная в опасности! Злой гений Балазар после своей смерти не оставляет планов по завоеванию всего Мира, поскольку его мозг жив (несмотря на то, что тело мертво). И первой целью захватчиков станет Земля.
    Но кроме злых инопланетян есть и добрые, так инопланетный супер-герой Стармен командируется на Землю для борьбы с Балазаровым мозгом и его приспешниками.

    Продолжительность: 01: 05: 22
    Качество видео: DVDRip
    Перевод: Одноголосый закадровый
    Автор перевода: Трамвай-фильм
    Видео: Xvid, 960x720, ~1105 Кбит/с
    Аудио: MP3, 2 ch, 128 Кбит/с, CBR
    Код:

    File size : 588 MiB
    Duration : 1h 5mn
    Overall bit rate : 1 258 Kbps
    Encoded date : UTC 2015-09-26 10:03:22
    Writing application : mkvmerge v7.8.0 (\'River Man\') 32bit built on Mar 27 2015 16:18:02
    Writing library : libebml v1.3.1 + libmatroska v1.4.2
    Video
    ID : 1
    Format : MPEG-4 Visual
    Format profile : Simple@L3
    Format settings, BVOP : No
    Format settings, QPel : No
    Format settings, GMC : No warppoints
    Format settings, Matrix : Default (H.263)
    Codec ID : V_MS/VFW/FOURCC/XVID
    Codec ID/Hint : XviD
    Duration : 1h 5mn
    Bit rate : 1 105 Kbps
    Width : 960 pixels
    Height : 720 pixels
    Display aspect ratio : 4:3
    Frame rate mode : Constant
    Frame rate : 24.000 fps
    Color space : YUV
    Chroma subsampling : 4:2:0
    Bit depth : 8 bits
    Scan type : Progressive
    Compression mode : Lossy
    Bits/(Pixel*Frame) : 0.067
    Stream size : 517 MiB (88%)
    Writing library : XviD 1.2.1 (UTC 2008-12-04)
    Language : Russian
    Default : Yes
    Forced : No
    Audio
    ID : 2
    Format : MPEG Audio
    Format version : Version 1
    Format profile : Layer 3
    Mode : Joint stereo
    Mode extension : MS Stereo
    Codec ID : A_MPEG/L3
    Codec ID/Hint : MP3
    Duration : 1h 5mn
    Bit rate mode : Constant
    Bit rate : 128 Kbps
    Channel(s) : 2 channels
    Sampling rate : 48.0 KHz
    Compression mode : Lossy
    Stream size : 59.9 MiB (10%)
    Writing library : LAME3.98.2
    Default : Yes
    Forced : No


    Скриншоты для ознакомления




    Злой мозг из далёкого космоса/Evil Brain From Outer Space (1964) DVDRip
    загрузка...
    Рейтинг →
     (голосов: 1, оценка 3/5, голосовать можно 1 раз )

    Другие торренты по теме:

  • Хороший, плохой, злой / Il buono, il brutto, il cattivo (1966) BDRip [1080p] скачать через торрент бесплатно
  • Клиенты Проф 3.0.1 RePack by Злой неадмин [Ru] скачать через торрент бесплатно
  • Клиенты Проф 3.0.2 RePack by Злой неадмин [Ru] скачать через торрент бесплатно
  • Стивен Ван Дайн | Злой гений Нью-Йорка (2015) [MP3] скачать через торрент бесплатно
  • Ведение договоров 5.5 RePack by Злой неадмин [Ru] скачать через торрент бесплатно
  • Сексуальный злой гений / Sexy Evil Genius (2013) WEB-DL [H.264 / 720p-LQ] скачать через торрент бесплатно
  • Злой город / Wicked City (2015) WEB-DLRip (сезон 1, серии 1 из 10) BaibaKo (обновляемая) скачать через торрент бесплатно
  • Злой город / Город порока / Wicked City (2015) WEB-DL [H.264 / 720p-LQ] (сезон 1, серия 1 из 10) (NewStudio) (обновляемая) скачать через торрент бесплатно


    • Комментарии (0):

      Информация

      Информация

        Посетители, находящиеся в группе Гости, не могут оставлять комментарии в данной новости.

        ↓ Меню




        ↓ Опрос

        Вы добавили сайт в закладки?
        Да
        Нет


        Top 10 за месяц (Фильмы)