.
Авторизация | Регистрация
Хочешь лучшие торренты? Добавь свой email!
Добавить

Торрент скачать бесплатно

» » Игрок / The Player (2015) WEB-DLRip (сезон 1, серии 1 из 4) NewStudio (обновляемая) скачать через торрент бесплатно




    Игрок / The Player (2015) WEB-DLRip (сезон 1, серии 1 из 4) NewStudio (обновляемая) скачать через торрент бесплатно

    Опубликовал: Админ | Дата: 26-09-2015, 04:00 | Просмотров: 95

    Производство: США/Davis Entertainment, Kung Fu Monkey Productions, Universal Television
    Жанр: триллер, драма
    Режиссер: Джон Роджерс

    Актеры
    Уэсли Снайпс, Филип Уинчестер, Чарити Уэйкфилд, Дэймон Гаптон, Тони Френч, Пануват Энтони Нанакорнпаном, Фил Тайлер, Нитя Видьясагар и др.

    Описание

    В центре повествования находится опытный спецагент, который на протяжении долгого времени работал в престижном разведывательном ведомстве. Беспрерывные задания, переполненные приключениями и опасностями, сделали из него настоящего мастера этого дела. Раз за разом раскрывая самые запутанные преступления, даже при отсутствии малейших зацепок, он смог стать одним из лучших. По мере выполнения своей работы, он жаждет раскрыть преступление, которое разрушило его жизнь...

    Дата мировой премьеры: 24 сентября 2015
    Продолжительность: ~00: 43: 00 серия
    Качество видео: WEB-DLRip
    Перевод: Многоголосый закадровый, профессиональный -NewStudio
    Автор перевода: Юля Мейер
    Видео: XviD, 720x400 (16: 9), ~1500 kb/s
    Аудио Rus: MPEG Layer 3, 48, 0 kHz, 2 ch, 128 kb/s — многоголосый закадровый
    Аудио Eng: MPEG Layer 3, 48, 0 kHz, 2 ch, 128 kb/s — оригинал
    Общее
    Полное имя : D: Игрок (сезон любимого сериала 1) The Player (2015) WEB-DLRip - NewStudioThe.Player.s01e01.WEBDLRip.NewStudio.TV.avi
    Формат : AVI
    Формат/Информация : Audio Video Interleave
    Размер файла : 550 Мбайт
    Продолжительность : 43 м.
    Общий поток : 1775 Кбит/сек
    Программа кодирования : VirtualDubMod 1.5.10.2 (build 2540/release)
    Библиотека кодирования : VirtualDubMod build 2540/release
    Видео
    Идентификатор : 0
    Формат : MPEG-4 Visual
    Профиль формата : Advanced Simple@L5
    Параметр BVOP формата : 2
    Параметр QPel формата : Нет
    Параметр GMC формата : Без точки перехода
    Параметр матрицы формата : Default (MPEG)
    Идентификатор кодека : XVID
    Идентификатор кодека/Подсказка : XviD
    Продолжительность : 43 м.
    Битрейт : 1506 Кбит/сек
    Ширина : 720 пикселей
    Высота : 400 пикселей
    Соотношение сторон : 16: 9
    Частота кадров : 23, 976 кадра/сек
    Цветовое пространство : YUV
    Субдискретизация насыщенности : 4: 2: 0
    Битовая глубина : 8 бит
    Тип развёртки : Прогрессивная
    Метод сжатия : С потерями
    Бит/(Пиксели*Кадры) : 0.218
    Размер потока : 466 Мбайт (85%)
    Библиотека кодирования : XviD 73
    Аудио #1
    Идентификатор : 1
    Формат : MPEG Audio
    Версия формата : Version 1
    Профиль формата : Layer 3
    Режим : Joint stereo
    Расширение режима : MS Stereo
    Идентификатор кодека : 55
    Идентификатор кодека/Подсказка : MP3
    Продолжительность : 43 м.
    Вид битрейта : Постоянный
    Битрейт : 128 Кбит/сек
    Каналы : 2 канала
    Частота : 48, 0 КГц
    Метод сжатия : С потерями
    Размер потока : 39, 6 Мбайт (7%)
    Выравнивание : Соединение по промежуткам
    Продолжительность промежутка : 42 мс. (1, 00 видеокадр)
    Время предзагрузки промежутка : 504 мс.
    Аудио #2
    Идентификатор : 2
    Формат : MPEG Audio
    Версия формата : Version 1
    Профиль формата : Layer 3
    Режим : Joint stereo
    Идентификатор кодека : 55
    Идентификатор кодека/Подсказка : MP3
    Продолжительность : 43 м.
    Вид битрейта : Постоянный
    Битрейт : 128 Кбит/сек
    Каналы : 2 канала
    Частота : 48, 0 КГц
    Метод сжатия : С потерями
    Размер потока : 39, 6 Мбайт (7%)
    Выравнивание : Соединение по промежуткам
    Продолжительность промежутка : 42 мс. (1, 00 видеокадр)
    Время предзагрузки промежутка : 504 мс.
    Библиотека кодирования : LAME3.99r
    Настройки программы : -m j -V 4 -q 2 -lowpass 17 -b 128


    Скриншоты для ознакомления




    Игрок/The Player (2015) WEB-DLRip (сезон 1, серии 1 из 4) NewStudio (обновляемая)
    загрузка...
    Рейтинг →
     (голосов: 1, оценка 4/5, голосовать можно 1 раз )

    Другие торренты по теме:

  • Игрок / The Player (2015) WEB-DL [H.264 / 1080p-LQ] (сезон 1, серия 1 из 4) (NewStudio) (обновляемая) скачать через торрент бесплатно
  • Игрок / The Player (2015) WEB-DL [H.264 / 720p-LQ] (сезон 1, серии 1 из 4) NewStudio (обновляемая) скачать через торрент бесплатно
  • Игрок / The Player (2015) WEB-DLRip (сезон 1, серии 1 из 4) BaibaKo (обновляемая) скачать через торрент бесплатно
  • Игрок / The Player (2015) WEB-DL [H.264 / 720p-LQ] (сезон 1, серия 1 из 4) BaibaKo (обновляемая) скачать через торрент бесплатно
  • Игрок / The Player (2015) WEB-DL [H.264 / 720p-LQ] (сезон 1, серия 1 из 4) AlexFilm (обновляемая) скачать через торрент бесплатно
  • Игрок / The Player (2015) WEB-DLRip [H.264] (сезон 1, серия 1 из 4) BaibaKo [MP4|720x400] скачать через торрент бесплатно
  • Игрок / The Player (2015) WEB-DLRip [H.264] (сезон 1, серии 1-9 из 9) NewStudio [MP4|720x400] скачать через торрент бесплатно


    • Комментарии (0):

      Информация

      Информация

        Посетители, находящиеся в группе Гости, не могут оставлять комментарии в данной новости.

        ↓ Меню




        ↓ Опрос

        Вы добавили сайт в закладки?
        Да
        Нет


        Top 10 за месяц (Фильмы)