.
Авторизация | Регистрация
Хочешь лучшие торренты? Добавь свой email!
Добавить

Торрент скачать бесплатно

» » Роузвуд / Rosewood (2015) WEB-DLRip (сезон 1, серии 1 из ) NewStudio (обновляемая) скачать через торрент бесплатно




    Роузвуд / Rosewood (2015) WEB-DLRip (сезон 1, серии 1 из ) NewStudio (обновляемая) скачать через торрент бесплатно

    Опубликовал: Админ | Дата: 26-09-2015, 04:00 | Просмотров: 1380

    Производство: США/Temple Hill Entertainment, Nickels Productions, 20th Century Fox Television
    Жанр: драма
    Режиссер: Ричард Шепард, Сара Пиа Андерсон, Эрик Ланёвилль

    Актеры
    Моррис Честнат, Мэгги Элизабет Джонс, Мишель Роуз Домб, Габриэль Деннис, Мелисса Пастрана, Джессика Ортиз, Оуэн Харн, Виктория Водар, Джеймс Дарнелл, Камал Анджело Болден и др.

    Описание

    История о патологоанатоме из Майами, докторе Роузвуде. Он проводит вскрытия в своей передовой лаборатории, чтобы обнаружить улики, невидимые для департамента полиции.

    Дата мировой премьеры: 23 сентября 2015
    Продолжительность: ~00: 47: 00 серия
    Качество видео: WEB-DLRip
    Перевод: Многоголосый закадровый, профессиональный -NewStudio
    Автор перевода: Юля Мейер
    Видео: XviD, 720x400 (16: 9), ~1355 kb/s
    Аудио Rus: MPEG Layer 3, 48, 0 kHz, 2 ch, 128 kb/s — многоголосый закадровый
    Аудио Eng: MPEG Layer 3, 48, 0 kHz, 2 ch, 128 kb/s — оригинал
    Общее
    Полное имя : D: Роузвуд (сезон любимого сериала 1) Rosewood (2015) WEB-DLRip - NewStudioRosewood.s01e01.WEBDLRip.NewStudio.TV.avi
    Формат : AVI
    Формат/Информация : Audio Video Interleave
    Размер файла : 550 Мбайт
    Продолжительность : 47 м.
    Общий поток : 1625 Кбит/сек
    Программа кодирования : VirtualDubMod 1.5.10.2 (build 2540/release)
    Библиотека кодирования : VirtualDubMod build 2540/release
    Видео
    Идентификатор : 0
    Формат : MPEG-4 Visual
    Профиль формата : Advanced Simple@L5
    Параметр BVOP формата : 2
    Параметр QPel формата : Нет
    Параметр GMC формата : Без точки перехода
    Параметр матрицы формата : Default (MPEG)
    Идентификатор кодека : XVID
    Идентификатор кодека/Подсказка : XviD
    Продолжительность : 47 м.
    Битрейт : 1355 Кбит/сек
    Ширина : 720 пикселей
    Высота : 400 пикселей
    Соотношение сторон : 16: 9
    Частота кадров : 23, 976 кадра/сек
    Цветовое пространство : YUV
    Субдискретизация насыщенности : 4: 2: 0
    Битовая глубина : 8 бит
    Тип развёртки : Прогрессивная
    Метод сжатия : С потерями
    Бит/(Пиксели*Кадры) : 0.196
    Размер потока : 458 Мбайт (83%)
    Библиотека кодирования : XviD 73
    Аудио #1
    Идентификатор : 1
    Формат : MPEG Audio
    Версия формата : Version 1
    Профиль формата : Layer 3
    Режим : Joint stereo
    Расширение режима : MS Stereo
    Идентификатор кодека : 55
    Идентификатор кодека/Подсказка : MP3
    Продолжительность : 47 м.
    Вид битрейта : Постоянный
    Битрейт : 128 Кбит/сек
    Каналы : 2 канала
    Частота : 48, 0 КГц
    Метод сжатия : С потерями
    Размер потока : 43, 3 Мбайт (8%)
    Выравнивание : Соединение по промежуткам
    Продолжительность промежутка : 42 мс. Бесплатный сыр, сказал кто то из толпы, к чему не понятно. (1, 00 видеокадр)
    Время предзагрузки промежутка : 504 мс.
    Аудио #2
    Идентификатор : 2
    Формат : MPEG Audio
    Версия формата : Version 1
    Профиль формата : Layer 3
    Режим : Joint stereo
    Идентификатор кодека : 55
    Идентификатор кодека/Подсказка : MP3
    Продолжительность : 47 м.
    Вид битрейта : Постоянный
    Битрейт : 128 Кбит/сек
    Каналы : 2 канала
    Частота : 48, 0 КГц
    Метод сжатия : С потерями
    Размер потока : 43, 3 Мбайт (8%)
    Выравнивание : Соединение по промежуткам
    Продолжительность промежутка : 42 мс. (1, 00 видеокадр)
    Время предзагрузки промежутка : 504 мс.
    Библиотека кодирования : LAME3.99r
    Настройки программы : -m j -V 4 -q 2 -lowpass 17 -b 128


    Скриншоты для ознакомления




    Роузвуд/Rosewood (2015) WEB-DLRip (сезон 1, серии 1 из ) NewStudio (обновляемая)
    загрузка...
    Рейтинг →
     (голосов: 1, оценка 3/5, голосовать можно 1 раз )

    Другие торренты по теме:

  • Роузвуд / Rosewood (2015) WEB-DLRip (сезон 1, серии 1 из ) BaibaKo (обновляемая) скачать через торрент бесплатно
  • Роузвуд / Rosewood (2015) WEB-DLRip (сезон 1, серии 1-13 из 22) BaibaKo (обновляемая)
  • Роузвуд / Rosewood (2015) WEB-DLRip (сезон 1, серии 1-13 из 22) NewStudio (Обновляемая)
  • Роузвуд / Rosewood (2015) WEB-DLRip [H.264 / 1080р-LQ] (сезон 1, серии 1-20 из 22) NewStudio (обновляемая)
  • Роузвуд / Rosewood (2016) WEB-DLRip (сезон 2, серии 1-22 из 22) Newstudio


    • Комментарии (0):

      Информация

      Информация

        Посетители, находящиеся в группе Гости, не могут оставлять комментарии в данной новости.

        ↓ Меню




        ↓ Опрос

        Вы добавили сайт в закладки?
        Да
        Нет


        Top 10 за месяц (Фильмы)