.
Авторизация | Регистрация
Хочешь лучшие торренты? Добавь свой email!
Добавить

Торрент скачать бесплатно

» » Готэм / Gotham (2015) WEB-DLRip (сезон 2, серии 1 из 22) BaibaKo (обновляемая) скачать через торрент бесплатно




    Готэм / Gotham (2015) WEB-DLRip (сезон 2, серии 1 из 22) BaibaKo (обновляемая) скачать через торрент бесплатно

    Опубликовал: Админ | Дата: 24-09-2015, 04:00 | Просмотров: 102

    Производство: США/Primrose Hill Productions, DC Comics, Warner Bros. Television
    Жанр: триллер, драма, криминал
    Режиссер: Дэнни Кэннон

    Актеры
    Бен МакКензи, Донал Лог, Сара Пэкстон, Джада Пинкетт Смит, Шон Пертуи, Эрин Ричардс, Робин Тейлор, Дэвид Мазоуз, Забрина Гевара, Самрен Бикондова и др.

    Описание

    Сериал Готэм рассказывает о событиях, происходивших в детские годы Брюса Уэйна, впоследствии ставшего Бэтменом. Родителей мальчика убивают у него на глазах. За расследование убийства четы Уэйнов берётся молодой детектив Джим Гордон. Ему приходится иметь дело со злодеями всех мастей, и одним из самых коварных по праву считается Освальд Кобблпот, более известный как Пингвин.
    Телевизионный проект DC Comics и автора детективного сериала Менталист Бруно Хеллера

    Продолжительность: ~00: 44: 00 серия
    Качество видео: WEB-DLRip
    Перевод: Многоголосый закадровый, профессиональный -BaibaKo
    Автор перевода: Янина Галицкая
    Озвучка: Ольга Мотрич, Светлана Доманова, Сергей Корчак и Алексей Кузнецов.
    Видео: XviD, 720x400 (16: 9), ~1500 kb/s
    Аудио Rus: MPEG Layer 3, 48, 0 kHz, 2 ch, 192 kb/s — многоголосый закадровый
    Аудио Eng: MPEG Layer 3, 48, 0 kHz, 2 ch, 192 kb/s — оригинал
    Общее
    Полное имя : D: Готэм (сезон любимого сериала 2) Gotham (2015) WEB-DLRip - BaibaKoGotham.s02e01.WEB-DLRip.XviD.Rus.Eng.BaibaKo.tv.avi
    Формат : AVI
    Формат/Информация : Audio Video Interleave
    Размер файла : 599 Мбайт
    Продолжительность : 44 м.
    Общий поток : 1896 Кбит/сек
    Программа кодирования : VirtualDubMod 1.5.10.2 (build 2540/release)
    Библиотека кодирования : VirtualDubMod build 2540/release
    Видео
    Идентификатор : 0
    Формат : MPEG-4 Visual
    Профиль формата : Advanced Simple@L5
    Параметр BVOP формата : 2
    Параметр QPel формата : Нет
    Параметр GMC формата : Без точки перехода
    Параметр матрицы формата : Default (H.263)
    Идентификатор кодека : XVID
    Идентификатор кодека/Подсказка : XviD
    Продолжительность : 44 м.
    Битрейт : 1498 Кбит/сек
    Ширина : 720 пикселей
    Высота : 400 пикселей
    Соотношение сторон : 16: 9
    Частота кадров : 23, 976 кадра/сек
    Цветовое пространство : YUV
    Субдискретизация насыщенности : 4: 2: 0
    Битовая глубина : 8 бит
    Тип развёртки : Прогрессивная
    Метод сжатия : С потерями
    Бит/(Пиксели*Кадры) : 0.217
    Размер потока : 473 Мбайт (79%)
    Библиотека кодирования : XviD 67
    Аудио #1
    Идентификатор : 1
    Формат : MPEG Audio
    Версия формата : Version 1
    Профиль формата : Layer 3
    Режим : Joint stereo
    Расширение режима : MS Stereo
    Идентификатор кодека : 55
    Идентификатор кодека/Подсказка : MP3
    Продолжительность : 44 м.
    Вид битрейта : Постоянный
    Битрейт : 192 Кбит/сек
    Каналы : 2 канала
    Частота : 48, 0 КГц
    Метод сжатия : С потерями
    Размер потока : 60, 7 Мбайт (10%)
    Выравнивание : Соединение по промежуткам
    Продолжительность промежутка : 42 мс. (1, 00 видеокадр)
    Время предзагрузки промежутка : 504 мс.
    Аудио #2
    Идентификатор : 2
    Формат : MPEG Audio
    Версия формата : Version 1
    Профиль формата : Layer 3
    Режим : Joint stereo
    Расширение режима : MS Stereo
    Идентификатор кодека : 55
    Идентификатор кодека/Подсказка : MP3
    Продолжительность : 44 м.
    Вид битрейта : Постоянный
    Битрейт : 192 Кбит/сек
    Каналы : 2 канала
    Частота : 48, 0 КГц
    Метод сжатия : С потерями
    Размер потока : 60, 7 Мбайт (10%)
    Выравнивание : Соединение по промежуткам
    Продолжительность промежутка : 42 мс. (1, 00 видеокадр)
    Время предзагрузки промежутка : 504 мс.


    Скриншоты для ознакомления




    Готэм/Gotham (2015) WEB-DLRip (сезон 2, серии 1 из 22) BaibaKo (обновляемая)
    загрузка...
    Рейтинг →
     (голосов: 1, оценка 5/5, голосовать можно 1 раз )

    Другие торренты по теме:

  • Готэм / Gotham (2014) WEB-DLRip (сезон 1, серии 1 из 16) LostFilm (обновляемая)
  • Готэм / Gotham (2014) WEB-DL [H.264 / 1080p-LQ] (Сезон 1, серия 1 из 16) (NewStudio) (обновляемая)
  • Готэм / Gotham (2014) WEB-DLRip (сезон 1, серии 1 из 16) BaibaKo (обновляемая)
  • Готэм / Gotham (2014) WEB-DL [H.264 / 720p-LQ] (Сезон 1, Серии 1 из 16) (NewStudio) (Обновляемая)
  • Готэм / Gotham (2014) WEBDLRip (Сезон 1, серия 01 из 16) (NewStudio) (обновляемая)
  • Готэм / Gotham (2014) WEB-DL [H.264 / 720p-LQ] (Сезон 1, серия 01 из 16) (BaibaKo) (обновляемая)
  • Готэм / Gotham (2014) WEBRip [H.264 / 720p-LQ] [Трейлер]
  • Готэм (Gotham) / (Сезон 1, серия 1 из 16) LostFilm (2014) [MP4|1280x718] <WEB-DL H.264> скачать через торрент бесплатно


    • Комментарии (0):

      Информация

      Информация

        Посетители, находящиеся в группе Гости, не могут оставлять комментарии в данной новости.

        ↓ Меню




        ↓ Опрос

        Вы добавили сайт в закладки?
        Да
        Нет


        Top 10 за месяц (Фильмы)