.
Авторизация | Регистрация
Хочешь лучшие торренты? Добавь свой email!
Добавить

Торрент скачать бесплатно

» » Измены (2015) WEB-DLRip (серии 01-06 из 16) (обновляемая) скачать через торрент бесплатно




    Измены (2015) WEB-DLRip (серии 01-06 из 16) (обновляемая) скачать через торрент бесплатно

    Опубликовал: Админ | Дата: 24-09-2015, 04:00 | Просмотров: 95

    Производство: Россия/ТНТ
    Жанр: мелодрама
    Режиссер: Вадим Перельман

    Актеры
    Елена Лядова, Глафира Тарханова, Кирилл Кяро, Евгений Стычкин, Надежда Борисова, Михаил Трухин, Денис Шведов, Вячеслав Чепурченко, Ольга Хохлова, Павел Майков, Артём Маркарьян, Александр Клюквин, Юлия Яблонская, Дмитрий Блохин, Владимир Белоусов, Лукерья Ильяшенко, Екатерина Куликова, Лиза Блохина и др.

    Описание

    Невероятная история молодой женщины, у которой был муж и трое любовников. В сериале рассказывается о том, что происходят с судьбами людей, которые и которым изменяют.

    Дата премьеры в России: 21 сентября 2015
    Продолжительность: ~ 00: 42: 00 серия
    Качество видео: WEB-DLRip
    Видео: XviD, 704x400 (16: 9), ~ 1700 Кбит/с
    Аудио: MP3, 48000 Гц, 2 канала, 128 Кбит/с, CBR
    Код:
    General
    Complete name : Izmeny.e01.2015.WEB-DLRip.avi
    Format : AVI
    Format/Info : Audio Video Interleave
    File size : 506 MiB
    Duration : 39mn 23s
    Overall bit rate : 1 794 Kbps
    Writing application : VirtualDubMod 1.5.10.3 |www.virtualdub-fr.org|| (build 2550/release)
    Writing library : VirtualDubMod build 2550/release
    Video
    ID : 0
    Format : MPEG-4 Visual
    Format profile : Advanced Simple@L5
    Format settings, BVOP : 1
    Format settings, QPel : No
    Format settings, GMC : No warppoints
    Format settings, Matrix : Custom
    Codec ID : XVID
    Codec ID/Hint : XviD
    Duration : 39mn 23s
    Bit rate : 1 657 Kbps
    Width : 704 pixels
    Height : 400 pixels
    Display aspect ratio : 16:9
    Frame rate : 25.000 fps
    Color space : YUV
    Chroma subsampling : 4:2:0
    Bit depth : 8 bits
    Scan type : Progressive
    Compression mode : Lossy
    Bits/(Pixel*Frame) : 0.235
    Stream size : 467 MiB (92%)
    Writing library : XviD 73
    Audio
    ID : 1
    Format : MPEG Audio
    Format version : Version 1
    Format profile : Layer 3
    Codec ID : 55
    Codec ID/Hint : MP3
    Duration : 39mn 23s
    Bit rate mode : Constant
    Bit rate : 128 Kbps
    Channel(s) : 2 channels
    Sampling rate : 48.0 KHz
    Compression mode : Lossy
    Stream size : 36.1 MiB (7%)
    Alignment : Aligned on interleaves
    Interleave, duration : 40 ms (1.00 video frame)
    Interleave, preload duration : 504 ms
    Writing library : LAME3.99r
    Encoding settings : -m s -V 4 -q 0 -lowpass 17 -b 128
    Автор рипа - ivandubskoj


    Скриншоты для ознакомления




    Измены (2015) WEB-DLRip (серии 01-06 из 16) (обновляемая)
    загрузка...
    Рейтинг →
     (голосов: 1, оценка 4/5, голосовать можно 1 раз )

    Другие торренты по теме:

  • Измены (2015) WEB-DLRip [H.264] (серии 1-8 из 16) (обновляемая) скачать через торрент бесплатно


    • Комментарии (0):

      Информация

      Информация

        Посетители, находящиеся в группе Гости, не могут оставлять комментарии в данной новости.

        ↓ Меню




        ↓ Опрос

        Вы добавили сайт в закладки?
        Да
        Нет


        Top 10 за месяц (Фильмы)