.
Авторизация | Регистрация
Хочешь лучшие торренты? Добавь свой email!
Добавить

Торрент скачать бесплатно

» » Москва слезам не верит (1979) BDRip [H.264 / 1080p-LQ] скачать через торрент бесплатно




    Москва слезам не верит (1979) BDRip [H.264 / 1080p-LQ] скачать через торрент бесплатно

    Опубликовал: Админ | Дата: 24-09-2015, 04:00 | Просмотров: 117

    Производство: СССР, Мосфильм
    Жанр: Мелодрама, Драма, Комедия
    Режиссер: Владимир Меньшов

    Актеры
    Вера Алентова, Ирина Муравьёва, Алексей Баталов, Раиса Рязанова, Александр Фатюшин, Борис Сморчков, Юрий Васильев, Наталья Вавилова, Виктор Уральский, Валентина Ушакова

    Описание

    Москва пятидесятых годов. Три молодые провинциалки приезжают в Москву в поисках того, что ищут люди во всех столицах мира — любви, счастья и достатка. Их судьбы складываются именно так, как предполагает характер каждой из девушек.
    Антонина выходит замуж, растит детей, любит мужа. Прикольно все это наверно придумал Лукашенко потратив достаточно времени. Людмиле Москва представляется лотереей, в которой она должна выиграть свое особенное счастье. Время пошло, сказал кто то из толпы, к чему не понятно. Катерина же — отчаянно влюбляется, но избранник ее оставляет. Однако она не опускает руки, в одиночку растит дочь и к тому же успевает сделать блестящую карьеру. В сорок лет судьба дарит ей встречу с прекрасным человеком и настоящую любовь…

    Продолжительность: 02: 28: 17
    Качество видео: BDRip
    Видео: AVC/H.264, 1920x1080, ~6000 kbps
    Аудио: DTS, 6 ch, 1509 kbps, CBR
    Семпл: Скачать
    Код:

    Общее
    Уникальный идентификатор : 177205178645071600345047645919550388772 (0x855079DA2C3F066B8B4902E329903A24)
    Полное имя : D:moscow_does_not_believe_in_tears_1080p.mkv
    Формат : Matroska
    Версия формата : Version 4/Version 2
    Размер файла : 7, 78 Гбайт
    Продолжительность : 2 ч. О таком странном сюжете не догадывалась даже Шакира. 28 м.
    Общий поток : 7511 Кбит/сек
    Название фильма : moskva
    Дата кодирования : UTC 2015-09-23 00:19:13
    Программа кодирования : mkvmerge v8.0.0 (\'Til The Day That I Die\') 32bit
    Библиотека кодирования : libebml v1.3.1 + libmatroska v1.4.2
    DURATION : 02:28:17.590000000
    NUMBER_OF_FRAMES : 834149
    NUMBER_OF_BYTES : 1678307788
    _STATISTICS_WRITING_APP : mkvmerge v8.0.0 (\'Til The Day That I Die\') 32bit
    _STATISTICS_WRITING_DATE_UTC : 2015-09-23 00:19:13
    _STATISTICS_TAGS : BPS DURATION NUMBER_OF_FRAMES NUMBER_OF_BYTES
    Видео
    Идентификатор : 1
    Формат : AVC
    Формат/Информация : Advanced Video Codec
    Профиль формата : High 10@L4
    Параметр CABAC формата : Да
    Параметр ReFrames формата : 3 кадра
    Идентификатор кодека : V_MPEG4/ISO/AVC
    Продолжительность : 2 ч. 28 м.
    Битрейт : 6000 Кбит/сек
    Ширина : 1920 пикселей
    Высота : 1080 пикселей
    Соотношение сторон : 16:9
    Режим частоты кадров : Постоянный
    Частота кадров : 23, 976 кадра/сек
    Цветовое пространство : YUV
    Субдискретизация насыщенности : 4:2:0
    Битовая глубина : 10 бит
    Тип развёртки : Прогрессивная
    Бит/(Пиксели*Кадры) : 0.121
    Размер потока : 6, 06 Гбайт (78%)
    Библиотека кодирования : x264 core 146 r2538 121396c
    Настройки программы : cabac=1/ref=3/deblock=1:0:0/analyse=0x3:0x113/me=hex/subme=7/psy=1/psy_rd=1.00:0.00/mixed_ref=1/me_range=16/chroma_me=1/trellis=1/8x8dct=1/cqm=0/deadzone=21, 11/fast_pskip=1/chroma_qp_offset=-2/threads=12/lookahead_threads=2/sliced_threads=0/nr=0/decimate=1/interlaced=0/bluray_compat=0/constrained_intra=0/bframes=3/b_pyramid=0/b_adapt=1/b_bias=0/direct=1/weightb=1/open_gop=0/weightp=2/keyint=240/keyint_min=24/scenecut=40/intra_refresh=0/rc_lookahead=40/rc=2pass/mbtree=1/bitrate=6000/ratetol=1.0/qcomp=0.60/qpmin=0/qpmax=81/qpstep=4/cplxblur=20.0/qblur=0.5/ip_ratio=1.40/aq=1:1.00
    Default : Да
    Forced : Нет
    Аудио
    Идентификатор : 2
    Формат : DTS
    Формат/Информация : Digital Theater Systems
    Режим : 16
    Параметр Endianness формата : Big
    Идентификатор кодека : A_DTS
    Продолжительность : 2 ч. 28 м.
    Вид битрейта : Постоянный
    Битрейт : 1509 Кбит/сек
    Каналы : 6 каналов
    Расположение каналов : Front: L C R, Side: L R, LFE
    Частота : 48, 0 КГц
    Битовая глубина : 24 бит
    Метод сжатия : С потерями
    Размер потока : 1, 56 Гбайт (20%)
    Язык : Russian
    Default : Да
    Forced : Нет
    Меню
    00:00:00.000 : en:00:00:00.000
    00:04:00.407 : en:00:04:00.407
    00:08:27.257 : en:00:08:27.257
    00:09:44.918 : en:00:09:44.918
    00:12:57.068 : en:00:12:57.068
    00:15:17.917 : en:00:15:17.917
    00:22:54.373 : en:00:22:54.373
    00:26:51.944 : en:00:26:51.944
    00:29:58.338 : en:00:29:58.338
    00:35:52.400 : en:00:35:52.400
    00:42:41.476 : en:00:42:41.476
    00:46:03.344 : en:00:46:03.344
    00:48:36.080 : en:00:48:36.080
    00:55:13.352 : en:00:55:13.352
    01:01:13.003 : en:01:01:13.003
    01:04:29.532 : en:01:04:29.532
    01:06:50.632 : en:01:06:50.632
    01:13:54.347 : en:01:13:54.347
    01:14:38.349 : en:01:14:38.349
    01:17:12.586 : en:01:17:12.586
    01:21:11.075 : en:01:21:11.075
    01:28:33.975 : en:01:28:33.975
    01:35:22.926 : en:01:35:22.926
    01:40:35.738 : en:01:40:35.738
    01:46:30.884 : en:01:46:30.884
    01:54:40.999 : en:01:54:40.999
    01:57:20.617 : en:01:57:20.617
    02:00:59.752 : en:02:00:59.752
    02:04:17.408 : en:02:04:17.408
    02:10:55.806 : en:02:10:55.806
    02:18:33.597 : en:02:18:33.597
    02:22:05.892 : en:02:22:05.892


    Скриншоты для ознакомления




    Москва слезам не верит (1979) BDRip [H.264/1080p-LQ]
    загрузка...
    Рейтинг →
     (голосов: 1, оценка 4/5, голосовать можно 1 раз )

    Другие торренты по теме:

  • Даниил Мордовцев | Москва слезам не верит (2014) [MP3]
  • Ирина Агапова, Маргарита Давыдова | Москва слезам не верит (2015) [MP3]
  • Москва слезам не верит (1979) BDRip [H.264 / 1080p]
  • Москва слезам не верит (1979) Blu-ray [1080p]


    • Комментарии (0):

      Информация

      Информация

        Посетители, находящиеся в группе Гости, не могут оставлять комментарии в данной новости.

        ↓ Меню




        ↓ Опрос

        Вы добавили сайт в закладки?
        Да
        Нет


        Top 10 за месяц (Фильмы)