.
Авторизация | Регистрация
Хочешь лучшие торренты? Добавь свой email!
Добавить

Торрент скачать бесплатно

» » Воздействие / Грабь награбленное / Leverage (2008-2012) WEB-DLRip (сезон 1-5, серии 1-77 из 77) LostFilm скачать через торрент бесплатно




    Воздействие / Грабь награбленное / Leverage (2008-2012) WEB-DLRip (сезон 1-5, серии 1-77 из 77) LostFilm скачать через торрент бесплатно

    Опубликовал: Админ | Дата: 21-09-2015, 04:00 | Просмотров: 97

    Производство: США
    Жанр: боевик, криминал, детектив
    Режиссер: Марк Роскин, Дин Девлин, Джонатан Фрейкс

    Актеры
    Тимоти Хаттон, Джина Беллман, Кристиан Кэйн, Бэт Рисграф, Элдис Ходж, Марк Шеппард, Джери Райан, Шон Гудел, Эндрю Д. Форд, Джералд Дауни, Роберт Бланш, Леон Риппи, Кари Матчетт, Денни Бруно, Лиза Шурга, Сол Рубинек, Том Скеррит, Дрю Пауэлл, Горан Виснич, Ричард Чемберлен, Кевин Тиг, Кэти О’Грэйди, Адам Болдуин, Блейк Линдсли, Денни Гловер, Митч Пилеги, Д.Б. Суини, Трит Уильямс, Кари Вурер и др.

    Описание

    Нейт Форд, бывший следователь страховой компании, возглавляет команду, в которую входят: компьютерный мошенник Хардисон, воровка и вообще безбашенная особа Паркер, актриса и мошенница Софи и специалист широкого профиля Эллиот. Эта команда помогает людям пострадавшим от рук сильных мира сего, а попросту — воров.

    Продолжительность: ~00: 44: 00 серия
    Качество видео: WEB-DLRip
    Перевод: Многоголосый закадровый, профессиональный -LostFilm
    Видео: XviD, 704x400 (16: 9), ~2000/1800 kbps
    Аудио Rus: AC3, 2 ch, ~192 kbps(1-2 сезон любимого сериалаы)
    Аудио Rus: MP3, 2 ch, ~256 kbps(3 сезон любимого сериала)
    Аудио Rus: AC3, 6 ch, ~384 kbps(4-5 сезон любимого сериалаы)
    General
    Complete name : C: Users utDesktopзакаченоеLeverageSeason_01s01e01_The.Nigerian.Job.avi
    Format : AVI
    Format/Info : Audio Video Interleave
    File size : 902 MiB
    Duration : 57mn 16s
    Overall bit rate : 2 201 Kbps
    Writing application : VirtualDubMod 1.5.10.3 |www.virtualdub-fr.org|| (build 2550/release)
    Writing library : VirtualDubMod build 2550/release
    Video
    ID : 0
    Format : MPEG-4 Visual
    Format profile : Advanced Simple@L5
    Format settings, BVOP : 1
    Format settings, QPel : No
    Format settings, GMC : No warppoints
    Format settings, Matrix : Custom
    Codec ID : XVID
    Codec ID/Hint : XviD
    Duration : 57mn 16s
    Bit rate : 2 000 Kbps
    Width : 704 pixels
    Height : 400 pixels
    Display aspect ratio : 16: 9
    Frame rate : 23.976 fps
    Color space : YUV
    Chroma subsampling : 4: 2: 0
    Bit depth : 8 bits
    Scan type : Progressive
    Compression mode : Lossy
    Bits/(Pixel*Frame) : 0.296
    Stream size : 819 MiB (91%)
    Writing library : XviD 73
    Audio
    ID : 1
    Format : AC-3
    Format/Info : Audio Coding 3
    Format profile : Dolby Digital
    Mode extension : CM (complete main)
    Format settings, Endianness : Big
    Codec ID : 2000
    Duration : 57mn 16s
    Bit rate mode : Constant
    Bit rate : 192 Kbps
    Channel(s) : 2 channels
    Channel positions : Front: L R
    Sampling rate : 48.0 KHz
    Compression mode : Lossy
    Stream size : 78.7 MiB (9%)
    Alignment : Split accross interleaves
    Interleave, duration : 42 ms (1.00 video frame)
    Interleave, preload duratio : 500 ms
    Complete name : C: Users utDesktopзакаченоеLeverageSeason_02s02e01_The.Beantown.Bailout.Job.avi
    Format : AVI
    Format/Info : Audio Video Interleave
    File size : 681 MiB
    Duration : 43mn 14s
    Overall bit rate : 2 201 Kbps
    Writing application : VirtualDubMod 1.5.10.3 |www.virtualdub-fr.org|| (build 2550/release)
    Writing library : VirtualDubMod build 2550/release
    Video
    ID : 0
    Format : MPEG-4 Visual
    Format profile : Advanced Simple@L5
    Format settings, BVOP : 1
    Format settings, QPel : No
    Format settings, GMC : No warppoints
    Format settings, Matrix : Custom
    Codec ID : XVID
    Codec ID/Hint : XviD
    Duration : 43mn 14s
    Bit rate : 2 000 Kbps
    Width : 704 pixels
    Height : 400 pixels
    Display aspect ratio : 16: 9
    Frame rate : 23.976 fps
    Color space : YUV
    Chroma subsampling : 4: 2: 0
    Bit depth : 8 bits
    Scan type : Progressive
    Compression mode : Lossy
    Bits/(Pixel*Frame) : 0.296
    Stream size : 619 MiB (91%)
    Writing library : XviD 73
    Audio
    ID : 1
    Format : AC-3
    Format/Info : Audio Coding 3
    Format profile : Dolby Digital
    Mode extension : CM (complete main)
    Format settings, Endianness : Big
    Codec ID : 2000
    Duration : 43mn 14s
    Bit rate mode : Constant
    Bit rate : 192 Kbps
    Channel(s) : 2 channels
    Channel positions : Front: L R
    Sampling rate : 48.0 KHz
    Compression mode : Lossy
    Stream size : 59.4 MiB (9%)
    Alignment : Split accross interleaves
    Interleave, duration : 42 ms (1.00 video frame)
    Interleave, preload duratio : 500 ms
    General
    Complete name : C: Users utDesktopзакаченоеLeverageSeason_03s03e01_The.Jailhouse.Job.avi
    Format : AVI
    Format/Info : Audio Video Interleave
    File size : 692 MiB
    Duration : 42mn 42s
    Overall bit rate : 2 265 Kbps
    Writing application : VirtualDubMod 1.5.10.3 |www.virtualdub-fr.org|| (build 2550/release)
    Writing library : VirtualDubMod build 2550/release
    Video
    ID : 0
    Format : MPEG-4 Visual
    Format profile : Advanced Simple@L5
    Format settings, BVOP : 1
    Format settings, QPel : No
    Format settings, GMC : No warppoints
    Format settings, Matrix : Custom
    Codec ID : XVID
    Codec ID/Hint : XviD
    Duration : 42mn 42s
    Bit rate : 2 000 Kbps
    Width : 704 pixels
    Height : 400 pixels
    Display aspect ratio : 16: 9
    Frame rate : 23.976 fps
    Color space : YUV
    Chroma subsampling : 4: 2: 0
    Bit depth : 8 bits
    Scan type : Progressive
    Compression mode : Lossy
    Bits/(Pixel*Frame) : 0.296
    Stream size : 611 MiB (88%)
    Writing library : XviD 73
    Audio
    ID : 1
    Format : MPEG Audio
    Format version : Version 1
    Format profile : Layer 3
    Codec ID : 55
    Codec ID/Hint : MP3
    Duration : 42mn 42s
    Bit rate mode : Constant
    Bit rate : 256 Kbps
    Channel(s) : 2 channels
    Sampling rate : 48.0 KHz
    Compression mode : Lossy
    Stream size : 78.2 MiB (11%)
    Alignment : Aligned on interleaves
    Interleave, duration : 42 ms (1.00 video frame)
    Interleave, preload duratio : 504 ms
    General
    Complete name : C: Users utDesktopзакаченоеLeverageSeason_04s04e01_The.Long.Way.Down.Job.avi
    Format : AVI
    Format/Info : Audio Video Interleave
    File size : 724 MiB
    Duration : 42mn 16s
    Overall bit rate : 2 393 Kbps
    Writing application : VirtualDubMod 1.5.10.3 |www.virtualdub-fr.org|| (build 2550/release)
    Writing library : VirtualDubMod build 2550/release
    Video
    ID : 0
    Format : MPEG-4 Visual
    Format profile : Advanced Simple@L5
    Format settings, BVOP : 1
    Format settings, QPel : No
    Format settings, GMC : No warppoints
    Format settings, Matrix : Custom
    Codec ID : XVID
    Codec ID/Hint : XviD
    Duration : 42mn 16s
    Bit rate : 2 000 Kbps
    Width : 704 pixels
    Height : 400 pixels
    Display aspect ratio : 16: 9
    Frame rate : 23.976 fps
    Color space : YUV
    Chroma subsampling : 4: 2: 0
    Bit depth : 8 bits
    Scan type : Progressive
    Compression mode : Lossy
    Bits/(Pixel*Frame) : 0.296
    Stream size : 605 MiB (84%)
    Writing library : XviD 73
    Audio
    ID : 1
    Format : AC-3
    Format/Info : Audio Coding 3
    Mode extension : CM (complete main)
    Format settings, Endianness : Big
    Codec ID : 2000
    Duration : 42mn 16s
    Bit rate mode : Constant
    Bit rate : 384 Kbps
    Channel(s) : 6 channels
    Channel positions : Front: L C R, Side: L R, LFE
    Sampling rate : 48.0 KHz
    Compression mode : Lossy
    Stream size : 116 MiB (16%)
    Alignment : Split accross interleaves
    Interleave, duration : 42 ms (1.00 video frame)
    Interleave, preload duratio : 500 ms
    General
    Complete name : C: Users utDesktopзакаченоеLeverageSeason_05s05e01_The.Big.Bird.Job.avi
    Format : AVI
    Format/Info : Audio Video Interleave
    File size : 663 MiB
    Duration : 42mn 16s
    Overall bit rate : 2 193 Kbps
    Writing application : VirtualDubMod 1.5.10.3 |www.virtualdub-fr.org|| (build 2550/release)
    Writing library : VirtualDubMod build 2550/release
    Video
    ID : 0
    Format : MPEG-4 Visual
    Format profile : Advanced Simple@L5
    Format settings, BVOP : 2
    Format settings, QPel : No
    Format settings, GMC : No warppoints
    Format settings, Matrix : Custom
    Codec ID : XVID
    Codec ID/Hint : XviD
    Duration : 42mn 16s
    Bit rate : 1 800 Kbps
    Width : 704 pixels
    Height : 400 pixels
    Display aspect ratio : 16: 9
    Frame rate : 23.976 fps
    Color space : YUV
    Chroma subsampling : 4: 2: 0
    Bit depth : 8 bits
    Scan type : Progressive
    Compression mode : Lossy
    Bits/(Pixel*Frame) : 0.267
    Stream size : 544 MiB (82%)
    Writing library : XviD 73
    Audio
    ID : 1
    Format : AC-3
    Format/Info : Audio Coding 3
    Mode extension : CM (complete main)
    Format settings, Endianness : Big
    Codec ID : 2000
    Duration : 42mn 16s
    Bit rate mode : Constant
    Bit rate : 384 Kbps
    Channel(s) : 6 channels
    Channel positions : Front: L C R, Side: L R, LFE
    Sampling rate : 48.0 KHz
    Compression mode : Lossy
    Stream size : 116 MiB (18%)
    Alignment : Split accross interleaves
    Interleave, duration : 42 ms (1.00 video frame)
    Interleave, preload duratio : 500 ms


    Скриншоты для ознакомления




    Воздействие/Грабь награбленное/Leverage (2008-2012) WEB-DLRip (сезон 1-5, серии 1-77 из 77) LostFilm
    загрузка...
    Рейтинг →
     (голосов: 1, оценка 5/5, голосовать можно 1 раз )

    Другие торренты по теме:

  • Дмитрий Чеклецов | Результативное воздействие на подсознание (2013) PCRec скачать через торрент бесплатно


    • Комментарии (0):

      Информация

      Информация

        Посетители, находящиеся в группе Гости, не могут оставлять комментарии в данной новости.

        ↓ Меню




        ↓ Опрос

        Вы добавили сайт в закладки?
        Да
        Нет


        Top 10 за месяц (Фильмы)