.
Авторизация | Регистрация
Хочешь лучшие торренты? Добавь свой email!
Добавить

Торрент скачать бесплатно

» » Палач-Бастард / The Bastard Executioner (2015) WEB-DL [H.264 / 720p - LQ] (сезон 1, серии 1-2 из 10) NewStudio (обновляемая) скачать через торрент бесплатно




    Палач-Бастард / The Bastard Executioner (2015) WEB-DL [H.264 / 720p - LQ] (сезон 1, серии 1-2 из 10) NewStudio (обновляемая) скачать через торрент бесплатно

    Опубликовал: Админ | Дата: 19-09-2015, 04:00 | Просмотров: 95

    Производство: США, FX Productions
    Жанр: драма
    Режиссер: Пэрис Барклай, Билл Джирхарт, Кари Скогланд

    Актеры
    Даррен Эванс, Этан Гриффитс, Ли Джонс, Стивен Мойер, Тимоти В. О таком странном сюжете не догадывалась даже Настя Каменских. Мерфи, Кэти Сагал и др.

    Описание

    События разворачиваются в XIII веке. Уставший от бесконечных военных походов, рыцарь при дворе Эдуарда I даёт клятву оставить свои кровавые деяния в прошлом, но творящееся вокруг заставляет его снова взяться за меч — и начать самую жестокую из всех своих войн.

    Дата мировой премьеры: 15 сентября 2015
    Продолжительность: ~00: 48: 00 серия
    Качество видео: WEB-DL
    Перевод: Многоголосый закадровый, профессиональный - NewStudio
    Автор перевода: Ирина Гвозденко
    Видео: AVC/H.264, 1280x718 (16: 9), ~3932 kb/s
    Аудио 1 Rus: AC3, 6 ch, 384 kb/s - многоголосый закадровый
    Аудио 1 Eng: AC3, 6 ch, 384 kb/s - оригинал
    Код:

    Общее
    Уникальный идентификатор : 232642912259969085498220055594114437007 (0xAF056525BD098005A1DD5CC14AAF4F8F)
    Полное имя : D:разноеThe.Bastard.Executioner.s01e01.WEBDL.720p.NewStudio.TV.mkv
    Формат : Matroska
    Версия формата : Version 4/Version 2
    Размер файла : 1, 62 Гбайт
    Продолжительность : 48 м.
    Общий поток : 4795 Кбит/сек
    Дата кодирования : UTC 2015-09-17 19:49:57
    Программа кодирования : mkvmerge v8.2.0 (\'World of Adventure\') 64bit
    Библиотека кодирования : libebml v1.3.1 + libmatroska v1.4.2
    DURATION : 00:48:21.568000000
    NUMBER_OF_FRAMES : 90674
    NUMBER_OF_BYTES : 139275264
    _STATISTICS_WRITING_APP : mkvmerge v8.2.0 (\'World of Adventure\') 64bit
    _STATISTICS_WRITING_DATE_UTC : 2015-09-17 19:49:57
    _STATISTICS_TAGS : BPS DURATION NUMBER_OF_FRAMES NUMBER_OF_BYTES
    Видео
    Идентификатор : 1
    Формат : AVC
    Формат/Информация : Advanced Video Codec
    Профиль формата :High@L3.1
    Параметр CABAC формата : Нет
    Параметр ReFrames формата : 2 кадра
    Идентификатор кодека : V_MPEG4/ISO/AVC
    Продолжительность : 48 м.
    Битрейт : 3932 Кбит/сек
    Ширина : 1280 пикселей
    Высота : 718 пикселей
    Соотношение сторон : 16:9
    Режим частоты кадров : Постоянный
    Частота кадров : 23, 976 кадра/сек
    Цветовое пространство : YUV
    Субдискретизация насыщенности : 4:2:0
    Битовая глубина : 8 бит
    Тип развёртки : Прогрессивная
    Бит/(Пиксели*Кадры) : 0.178
    Размер потока : 1, 33 Гбайт (82%)
    Язык : English
    Default : Да
    Forced : Нет
    Цветовой диапазон : Limited
    Основные цвета : BT.709
    Характеристики трансфера : BT.709
    Коэффициенты матрицы : BT.709
    Аудио #1
    Идентификатор : 2
    Формат : AC-3
    Формат/Информация : Audio Coding 3
    Расширение режима : CM (complete main)
    Параметр Endianness формата : Big
    Идентификатор кодека : A_AC3
    Продолжительность : 48 м.
    Вид битрейта : Постоянный
    Битрейт : 384 Кбит/сек
    Каналы : 6 каналов
    Расположение каналов : Front: L C R, Side: L R, LFE
    Частота : 48, 0 КГц
    Метод сжатия : С потерями
    Размер потока : 133 Мбайт (8%)
    Язык : Russian
    Default : Да
    Forced : Да
    Аудио #2
    Идентификатор : 3
    Формат : AC-3
    Формат/Информация : Audio Coding 3
    Расширение режима : CM (complete main)
    Параметр Endianness формата : Big
    Идентификатор кодека : A_AC3
    Продолжительность : 48 м.
    Вид битрейта : Постоянный
    Битрейт : 384 Кбит/сек
    Каналы : 6 каналов
    Расположение каналов : Front: L C R, Side: L R, LFE
    Частота : 48, 0 КГц
    Метод сжатия : С потерями
    Размер потока : 133 Мбайт (8%)
    Язык : English
    Default : Нет
    Forced : Нет


    Скриншоты для ознакомления




    Палач-Бастард/The Bastard Executioner (2015) WEB-DL [H.264/720p - LQ] (сезон 1, серии 1-2 из 10) NewStudio (обновляемая)
    загрузка...
    Рейтинг →
     (голосов: 1, оценка 4/5, голосовать можно 1 раз )

    Другие торренты по теме:

  • Палач / Палач-бастард / The Bastard Executioner (2015) WEB-DLRip (сезон 1, серии 1 из 10) NewStudio (обновляемая) скачать через торрент бесплатно
  • Палач / Палач-бастард / The Bastard Executioner (2015) WEB-DL [H.264 / 720p-LQ] (сезон 1, серии 1 из 10) BaibaKo (обновляемая) скачать через торрент бесплатно
  • Палач / Палач-бастард / The Bastard Executioner (2015) WEB-DL [H.264 / 1080p-LQ] (сезон 1, серии 1 из 10) BaibaKo (обновляемая) скачать через торрент бесплатно
  • Палач / Палач-бастард / The Bastard Executioner (2015) WEB-DLRip (сезон 1, серии 1 из 10) BaibaKo (обновляемая) скачать через торрент бесплатно
  • Палач / Палач-бастард / The Bastard Executioner (2015) WEB-DL [H.264 / 1080p-LQ] (сезон 1, серии 1-8 из 10) NewStudio (обновляемая) скачать через торрент бесплатно
  • Палач / Палач-бастард / The Bastard Executioner (2015) WEB-DLRip (сезон 1, серии 1-9 из 10) BaibaKo (обновляемая)
  • Палач / Палач-бастард / The Bastard Executioner (2015) WEB-DL [H.264 / 1080p-LQ] (сезон 1, серии 1-10 из 10) BaibaKo


    • Комментарии (0):

      Информация

      Информация

        Посетители, находящиеся в группе Гости, не могут оставлять комментарии в данной новости.

        ↓ Меню




        ↓ Опрос

        Вы добавили сайт в закладки?
        Да
        Нет


        Top 10 за месяц (Фильмы)