.
Авторизация | Регистрация
Хочешь лучшие торренты? Добавь свой email!
Добавить

Торрент скачать бесплатно

» » Воронины (2015) SATRip (сезон 15, серии 317-324 из 337) (обновляемая) скачать через торрент бесплатно




    Воронины (2015) SATRip (сезон 15, серии 317-324 из 337) (обновляемая) скачать через торрент бесплатно

    Опубликовал: Админ | Дата: 17-09-2015, 04:03 | Просмотров: 221

    Производство: Россия, ГудСториМедиа, Леан-М, СТС
    Жанр: семейный, комедия
    Режиссер: Александр Жигалкин, Леонид Коновалов, Георгий Дронов

    Актеры
    Георгий Дронов, Екатерина Волкова, Анна Фроловцева, Борис Клюев, Станислав Дужников, Юлия Куварзина, Мария Ильюхина, Кирилл Михин, Филипп Михин, Людмила Дмитриева, Андрей Ургант, Татьяна Орлова, Галина Стаханова и др.

    Описание

    В обычном доме в трехкомнатной квартире живет молодая семья: Костя, его жена Вера и как принято их дети – пятилетняя дочка и два маленьких сына-близнеца. Костя – известный спортивный журналист. Жена Вера любит его и ведет все хозяйство, а дети не доставляют много хлопот. О таком странном сюжете не догадывалась даже Ольга Полякова. Гораздо больше хлопот им приносят родители Кости, которые живут напротив на той же лестничной площадке… Воронины – это история о том, что иногда родственники бывают слишком близкими.
    Маша взрослеет – у нее появляются новые интересы, которые пугают родителей, особенно папу! Костя и Вера перед выбором: спрятать свою девочку за семью замками или предоставить ей свободу?

    Продолжительность: ~00: 25: 00 серия
    Качество видео: SATRip
    Видео: Xvid, 720х528, ~1800 kbps
    Аудио: MP3, 2 ch, 128 kbps
    Код:

    Общее
    Полное имя : D:Воронины Сезон 15 (2015)Voroniny.(15.sezon.317.seriya).2015.XviD.SATRip.avi
    Формат : AVI
    Формат/Информация : Audio Video Interleave
    Размер файла : 350 Мбайт
    Продолжительность : 24 м.
    Общий поток : 2024 Кбит/сек
    Программа кодирования : VirtualDubMod 1.5.10.3 |www.virtualdub-fr.org|| (build 2550/release)
    Библиотека кодирования : VirtualDubMod build 2550/release
    Видео
    Идентификатор : 0
    Формат : MPEG-4 Visual
    Профиль формата : Advanced Simple@L5
    Параметр BVOP формата : 1
    Параметр QPel формата : Нет
    Параметр GMC формата : Без точки перехода
    Параметр матрицы формата : Выборочная
    Идентификатор кодека : XVID
    Идентификатор кодека/Подсказка : XviD
    Продолжительность : 24 м.
    Битрейт : 1886 Кбит/сек
    Ширина : 720 пикселей
    Высота : 528 пикселей
    Соотношение сторон : 4:3
    Частота кадров : 25, 000 кадров/сек
    Цветовое пространство : YUV
    Субдискретизация насыщенности : 4:2:0
    Битовая глубина : 8 бит
    Тип развёртки : Прогрессивная
    Метод сжатия : С потерями
    Бит/(Пиксели*Кадры) : 0.198
    Размер потока : 326 Мбайт (93%)
    Библиотека кодирования : XviD 73
    Аудио
    Идентификатор : 1
    Формат : MPEG Audio
    Версия формата : Version 1
    Профиль формата : Layer 3
    Идентификатор кодека : 55
    Идентификатор кодека/Подсказка : MP3
    Продолжительность : 24 м.
    Вид битрейта : Постоянный
    Битрейт : 128 Кбит/сек
    Каналы : 2 канала
    Частота : 48, 0 КГц
    Метод сжатия : С потерями
    Размер потока : 22, 1 Мбайт (6%)
    Выравнивание : Соединение по промежуткам
    Продолжительность промежутка : 40 мс. (1, 00 видеокадр)
    Время предзагрузки промежутка : 504 мс.
    Библиотека кодирования : LAME3.99r
    Настройки программы : -m s -V 4 -q 0 -lowpass 17 -b 128


    Скриншоты для ознакомления




    Воронины (2015) SATRip (сезон 15, серии 317-324 из 337) (обновляемая)
    загрузка...
    Рейтинг →
     (голосов: 1, оценка 5/5, голосовать можно 1 раз )

    Другие торренты по теме:

  • Воронины (2017) SATRip (сезон 20, серии 423-424 из 442) (обновляемая)
  • Воронины (2017) SATRip [H.264] (сезон 18, серии 377-403 из 403)
  • Воронины (2017) SATRip (сезон 18, серии 377-403 из 403)
  • Воронины (2016) SATRip [H.264] (сезон 17, серии 357-376 из 376)
  • Воронины (2016) SATRip (сезон 17, серии 357-376 из 376)
  • Воронины (2016) SATRip (сезон 16, серии 337-356 из 356)
  • Воронины (2017) SATRip [H.264] (сезон 19, серии 404-422 из 422)
  • Воронины (2017) SATRip (сезон 19, серии 404-422 из 422)


    • Комментарии (0):

      Информация

      Информация

        Посетители, находящиеся в группе Гости, не могут оставлять комментарии в данной новости.

        ↓ Меню




        ↓ Опрос

        Вы добавили сайт в закладки?
        Да
        Нет


        Top 10 за месяц (Фильмы)