.
Авторизация | Регистрация
Хочешь лучшие торренты? Добавь свой email!
Добавить

Торрент скачать бесплатно

» » Нация Z / Z Nation (2015) WEB-DLRip (сезон 2, серии 1 из 13) LostFilm (обновляемая) скачать через торрент бесплатно




    Нация Z / Z Nation (2015) WEB-DLRip (сезон 2, серии 1 из 13) LostFilm (обновляемая) скачать через торрент бесплатно

    Опубликовал: Админ | Дата: 14-09-2015, 04:00 | Просмотров: 110

    Производство: США
    Жанр: ужасы, фантастика, боевик, драма
    Режиссер: Джон Хайамс, Тим Эндрю, Луис Прието

    Актеры
    Кит Аллан, Расселл Ходжкинсон, Нат Занг, Келлита Смит, Писей Пао, DJ Куаллс, Анастасия Баранова, Майкл Уэлш и др.

    Описание

    Спустя три года после того, как вирус зомби распространился и выпотрошил всю страну, команда героев должна перевезти единственного известного оставшегося в живых от действия чумы из Нью-Йорка в Калифорнию, где последняя функционирующая вирусная лаборатория ждет его крови. Хотя антитела, которые он несет, являются последней надеждой мира получить вакцину, он скрывает мрачную тайну, которая угрожает им всем. Выживание человечества под угрозой, когда разношерстная группа предпринимает путешествие длиной в пять тысяч километров по опустошенной, постапокалиптической Америке.

    Продолжительность: ~00: 43: 00 серия
    Качество видео: WEB-DLRip
    Перевод: Многоголосый закадровый, профессиональный -LostFilm
    Видео: XviD, 720x400 (16: 9), ~1900 kb/s
    Аудио Rus: MPEG Layer 3, 48, 0 kHz, 2 ch, 192 kb/s — многоголосый закадровый
    Общее
    Полное имя : D: Нация Z (сезон любимого сериала 2) Z Nation (2015) WEB-DLRip - LostFilm.Nation.S02E01.rus.LostFilm.TV.avi
    Формат : AVI
    Формат/Информация : Audio Video Interleave
    Размер файла : 654 Мбайт
    Продолжительность : 43 м.
    Режим общего битрейта : Переменный
    Общий поток : 2117 Кбит/сек
    Программа кодирования : Nandub v1.0rc2
    Библиотека кодирования : Nandub build 1853/release
    Видео
    Идентификатор : 0
    Формат : MPEG-4 Visual
    Профиль формата : Advanced Simple@L5
    Параметр BVOP формата : Нет
    Параметр QPel формата : Нет
    Параметр GMC формата : Без точки перехода
    Параметр матрицы формата : Default (H.263)
    Идентификатор кодека : XVID
    Идентификатор кодека/Подсказка : XviD
    Продолжительность : 43 м.
    Битрейт : 1915 Кбит/сек
    Ширина : 720 пикселей
    Высота : 400 пикселей
    Соотношение сторон : 16: 9
    Частота кадров : 23, 976 кадра/сек
    Цветовое пространство : YUV
    Субдискретизация насыщенности : 4: 2: 0
    Битовая глубина : 8 бит
    Тип развёртки : Прогрессивная
    Метод сжатия : С потерями
    Бит/(Пиксели*Кадры) : 0.277
    Размер потока : 592 Мбайт (90%)
    Библиотека кодирования : XviD 1.2.1 (UTC 2008-12-04)
    Аудио
    Идентификатор : 1
    Формат : MPEG Audio
    Версия формата : Version 1
    Профиль формата : Layer 3
    Режим : Joint stereo
    Расширение режима : MS Stereo
    Идентификатор кодека : 55
    Идентификатор кодека/Подсказка : MP3
    Продолжительность : 43 м.
    Вид битрейта : Переменный
    Битрейт : 192 Кбит/сек
    Каналы : 2 канала
    Частота : 48, 0 КГц
    Метод сжатия : С потерями
    Размер потока : 58, 3 Мбайт (9%)
    Выравнивание : Соединение по промежуткам
    Продолжительность промежутка : 24 мс. (0, 58 видеокадр)
    Время предзагрузки промежутка : 484 мс.
    Библиотека кодирования : LAME3.97b
    Настройки программы : -m j -V 4 -q 3 -lowpass 18.6 --abr 192


    Скриншоты для ознакомления




    Нация Z/Z Nation (2015) WEB-DLRip (сезон 2, серии 1 из 13) LostFilm (обновляемая)
    загрузка...
    Рейтинг →
     (голосов: 1, оценка 4/5, голосовать можно 1 раз )

    Другие торренты по теме:

  • Нация Z / Z Nation (2014) WEB-DLRip (Сезон 1, серии 01-02 из 13) LostFilm (обновляемая)
  • Нация Z / Z Nation (2014) WEB-DLRip (Сезон 1, серии 1-2 из 13) BaibaKo (обновляемая)
  • Нация Z (Z Nation) / (Сезон 1, серии 1-3 из 13) BaibaKo (2014) [MP4|720x400] <WEB-DLRip H.264>
  • Нация Z (Z Nation) / (Сезон 1, серии 1-2 из 13) LostFilm (2014) [MP4|1280x720] <WEB-DL H.264>
  • Нация Z / Z Nation (2014) WEB-DL [H.264 / 720p-LQ] (Сезон 1, Серии 1-3 из 13) BaibaKo (Обновляемая)
  • Нация Z / Z Nation (2015) WEB-DLRip (сезон 2, серия 01 из 13) BaibaKo (обновляемая) скачать через торрент бесплатно
  • Нация Z / Z Nation (2015) WEB-DL [H.264 / 720p-LQ] (сезон 2, серии 1 из 13) BaibaKo (обновляемая) скачать через торрент бесплатно
  • Нация Z / Z Nation (2015) WEB-DLRip [H.264] (Сезон 2, серия 1 из 13) BaibaKo [MP4|720x400] скачать через торрент бесплатно


    • Комментарии (0):

      Информация

      Информация

        Посетители, находящиеся в группе Гости, не могут оставлять комментарии в данной новости.

        ↓ Меню




        ↓ Опрос

        Вы добавили сайт в закладки?
        Да
        Нет


        Top 10 за месяц (Фильмы)