.
Авторизация | Регистрация
Хочешь лучшие торренты? Добавь свой email!
Добавить

Торрент скачать бесплатно

» » Лучше не бывает (2015) WEB-DLRip (серии 1-8 из 12) (обновляемая) скачать через торрент бесплатно




    Лучше не бывает (2015) WEB-DLRip (серии 1-8 из 12) (обновляемая) скачать через торрент бесплатно

    Опубликовал: Админ | Дата: 13-09-2015, 04:02 | Просмотров: 94

    Производство: Россия, кинокомпания Среда
    Жанр: лирическая комедия
    Режиссер: Евгений Семёнов

    Актеры
    Марина Коняшкина, Дмитрий Шевченко, Артём Осипов, Ирина Пегова, Эра Зиганшина, Илья Матюшин, Ксения Роменкова, Анастасия Попова (II), Михаил Трухин, Екатерина Кабак, Кристина Кузьмина, Игорь Савочкин, Артур Ваха, Игорь Ботвин, Анна Алексахина, Борис Бирман, Алексей Ведерников (II), Анжелика Неволина, Вадим Волков, Мария Шурубова

    Описание

    Виктория Чернова успешна, счастлива замужем, имеет сына, живет в большом доме в достатке и является объектом зависти для многих окружающих её людей. Но вся эта сладкая жизнь заканчивается в одночасье. Однажды, вернувшись домой, любящий супруг заявляет, чтобы она собирала вещи и убиралась из дома вместе с ребенком на все четыре стороны. Прикольно все это наверно придумал Супермен потратив достаточно времени. Он полюбил другую женщину. Виктория потрясена и шокирована, она не представляет как строить дальнейшую жизнь. Но спасает сильный характер. Прикольно все это наверно придумал Супермен потратив достаточно времени. И Вика решает добиваться всего сама, собственными силами.

    Дата российской премьеры: 7 сентября 2015
    Продолжительность: ~ 00: 50: 00 серия
    Качество видео: WEB-DLRip
    Видео: XVID, 720x400 (16: 9), ~1800 Kbps
    Аудио: AC3, 2 ch, 192 Kbps
    Код:
    Общее
    Полное имя : F:DOWNLOADSЛучше не бывает (2015) WEB-DLRipЛучше не бывает - 01 серия.avi
    Формат : AVI
    Формат/Информация : Audio Video Interleave
    Размер файла : 712 Мбайт
    Продолжительность : 49 м.
    Общий поток : 2002 Кбит/сек
    Программа кодирования : VirtualDubMod 1.5.10.3 |www.virtualdub-fr.org|| (build 2550/release)
    Библиотека кодирования : VirtualDubMod build 2550/release
    Видео
    Идентификатор : 0
    Формат : MPEG-4 Visual
    Профиль формата : Advanced Simple@L5
    Параметр BVOP формата : 1
    Параметр QPel формата : Нет
    Параметр GMC формата : Без точки перехода
    Параметр матрицы формата : Default (MPEG)
    Идентификатор кодека : XVID
    Идентификатор кодека/Подсказка : XviD
    Продолжительность : 49 м.
    Битрейт : 1800 Кбит/сек
    Ширина : 720 пикселей
    Высота : 400 пикселей
    Соотношение сторон : 16:9
    Частота кадров : 25, 000 кадров/сек
    Цветовое пространство : YUV
    Субдискретизация насыщенности : 4:2:0
    Битовая глубина : 8 бит
    Тип развёртки : Прогрессивная
    Метод сжатия : С потерями
    Бит/(Пиксели*Кадры) : 0.250
    Размер потока : 640 Мбайт (90%)
    Библиотека кодирования : XviD 73
    Аудио
    Идентификатор : 1
    Формат : AC-3
    Формат/Информация : Audio Coding 3
    Расширение режима : CM (complete main)
    Параметр Endianness формата : Big
    Идентификатор кодека : 2000
    Продолжительность : 49 м.
    Вид битрейта : Постоянный
    Битрейт : 192 Кбит/сек
    Каналы : 2 канала
    Расположение каналов : Front: L R
    Частота : 44, 1 КГц
    Метод сжатия : С потерями
    Размер потока : 68, 3 Мбайт (10%)
    Выравнивание : Разделение по промежуткам
    Продолжительность промежутка : 40 мс. (1, 00 видеокадр)
    Время предзагрузки промежутка : 500 мс.


    Скриншоты для ознакомления




    Лучше не бывает (2015) WEB-DLRip (серии 1-8 из 12) (обновляемая)
    загрузка...
    Рейтинг →
     (голосов: 1, оценка 5/5, голосовать можно 1 раз )

    Другие торренты по теме:

  • Лучше не бывает / As Good as It Gets (1997) BDRip [576p] iPad
  • Лучше не бывает / As Good as It Gets (1997) BDRip [1080p] ATV
  • Лучше не бывает (2015) SATRip (серии 1-4 из 12) (обновляемая) скачать через торрент бесплатно
  • Лучше не бывает (2015) WEB-DLRip [H.264 / 720p-LQ] (серии 1-8 из 12) (обновляемая) скачать через торрент бесплатно
  • Лучше не бывает (2015) WEB-DLRip [H.264 / 1080p-LQ] (серии 1-8 из 12) (обновляемая) скачать через торрент бесплатно


    • Комментарии (0):

      Информация

      Информация

        Посетители, находящиеся в группе Гости, не могут оставлять комментарии в данной новости.

        ↓ Меню




        ↓ Опрос

        Вы добавили сайт в закладки?
        Да
        Нет


        Top 10 за месяц (Фильмы)