.
Авторизация | Регистрация
Хочешь лучшие торренты? Добавь свой email!
Добавить

Торрент скачать бесплатно

» » Барбекю / Barbecue (2014) HDRip скачать через торрент бесплатно




    Барбекю / Barbecue (2014) HDRip скачать через торрент бесплатно

    Опубликовал: Админ | Дата: 10-09-2015, 04:00 | Просмотров: 87

    Производство: Франция, Same Player, StudioCanal, TF1 Films Production See
    Жанр: Комедия
    Режиссер: Эрик Лавэн

    Актеры
    Ламбер Вильсон, Франк Дюбоск, Флоренс Форести, Гийом де Тонкедек, Лионель Абелански, Жером Коммандёр, Софи Дюэз, Лисиан Мейс, Валери Крузе, Лукас Лавэн

    Описание

    Несмотря на то, что всю жизнь Антуан следил за своим здоровьем, на его пятидесятилетие у него случается инфаркт. Все врачи говорят, что теперь ему нужно быть более осторожным. Но ведь он и так всегда был острожным! Он решает, что ему нужна встряска, и намерен поменять свою жизнь кардинальным образом.

    Продолжительность: 01: 37: 33
    Качество видео: HDRip
    Перевод: Дублированный (SDI media)
    Видео: Xvid, 720x384, ~1938 Кбит/сек
    Аудио: AC3, 2 ch, 192 Кбит/сек
    Семпл: Скачать
    Код:

    Общее
    Полное имя : C:ТоррентыБарбекю.2014.HDRip.avi
    Формат : AVI
    Формат/Информация : Audio Video Interleave
    Размер файла : 1, 46 Гбайт
    Продолжительность : 1 ч. 37 м.
    Общий поток : 2140 Кбит/сек
    Программа кодирования : VirtualDubMod 1.5.10.2 (build 2540/release)
    Библиотека кодирования : VirtualDubMod build 2540/release
    Видео
    Идентификатор : 0
    Формат : MPEG-4 Visual
    Профиль формата : Advanced Simple@L5
    Параметр BVOP формата : 2
    Параметр QPel формата : Нет
    Параметр GMC формата : Без точки перехода
    Параметр матрицы формата : Default (MPEG)
    Идентификатор кодека : XVID
    Идентификатор кодека/Подсказка : XviD
    Продолжительность : 1 ч. О таком странном сюжете не догадывалась даже Светлана Лобода. 37 м.
    Битрейт : 1938 Кбит/сек
    Ширина : 720 пикселей
    Высота : 384 пикселя
    Соотношение сторон : 1, 85:1
    Частота кадров : 24, 000 кадра/сек
    Цветовое пространство : YUV
    Субдискретизация насыщенности : 4:2:0
    Битовая глубина : 8 бит
    Тип развёртки : Прогрессивная
    Метод сжатия : С потерями
    Бит/(Пиксели*Кадры) : 0.292
    Размер потока : 1, 32 Гбайт (91%)
    Библиотека кодирования : XviD 1.2.1 (UTC 2008-12-04)
    Аудио
    Идентификатор : 1
    Формат : AC-3
    Формат/Информация : Audio Coding 3
    Расширение режима : CM (complete main)
    Параметр Endianness формата : Big
    Идентификатор кодека : 2000
    Продолжительность : 1 ч. 37 м.
    Вид битрейта : Постоянный
    Битрейт : 192 Кбит/сек
    Каналы : 2 канала
    Расположение каналов : Front: L R
    Частота : 48, 0 КГц
    Метод сжатия : С потерями
    Размер потока : 134 Мбайт (9%)
    Выравнивание : Разделение по промежуткам
    Продолжительность промежутка : 42 мс. (1, 00 видеокадр)
    Время предзагрузки промежутка : 500 мс.


    Скриншоты для ознакомления




    Барбекю/Barbecue (2014) HDRip
    загрузка...
    Рейтинг →
     (голосов: 1, оценка 3/5, голосовать можно 1 раз )

    Другие торренты по теме:

  • Барбекю / Barbecue (2014) BDRip [H.264] скачать через торрент бесплатно


    • Комментарии (0):

      Информация

      Информация

        Посетители, находящиеся в группе Гости, не могут оставлять комментарии в данной новости.

        ↓ Меню




        ↓ Опрос

        Вы добавили сайт в закладки?
        Да
        Нет


        Top 10 за месяц (Фильмы)