.
Авторизация | Регистрация
Хочешь лучшие торренты? Добавь свой email!
Добавить

Торрент скачать бесплатно

» » Любовная лихорадка / A Love Song for Bobby Long (2004) DVDRip скачать через торрент бесплатно




    Любовная лихорадка / A Love Song for Bobby Long (2004) DVDRip скачать через торрент бесплатно

    Опубликовал: Админ | Дата: 9-09-2015, 04:00 | Просмотров: 125

    Производство: США, Bob Yari Productions
    Жанр: Драма
    Режиссер: Шэйни Гейбел

    Актеры
    Джон Траволта, Скарлетт Йоханссон, Гэбриел Махт, Дебора Кара Ангер, Дэйн Родс, Дэвид Дженсен, Клейн Кроуфорд, Сонни Шроер, Кэрол Саттон, Уолтер Бро, Уоррен Коул, Бернард Джонсон, Джина \'Джинджер\' Берналь, Дуглас М. Гриффин, Эрл Мэддокс, Стив Мэй, Дон Брэйди, Уилл Барнетт, Патрик МакКалло, Лиэнн Кохрэн, Ник Лорен

    Описание

    Узнав о смерти матери, уставшая от одинокой жизни, юная Персейл Хомини Уилл (Скарлетт Йохансон) возвращается в свой родной Новый Орлеан. Она ожидает найти дом матери пустым, но к ее большому удивлению в доме уже живут два человека, друзья ее матери: Бобби Лонг (Джон Траволта), бывший преподаватель литературы в университете, и его молодой протеже и биограф Лоусон Пайнс (Гэбриел Макт). Эти двое прочно укоренились в полуразрушенном доме и не намереваются его покидать. Так что всем троим приходится жить вместе. Со временем они привыкают друг к другу, начинают беседовать, и во время этих разговоров открывают друг другу тайны своей жизни. Они начинают понимать, что их кажущиеся простые выборы в прошлом неразрывно переплели их судьбы.

    Возраст: 16+ (зрителям, достигшим 16 лет. запрещено для детей)
    Рейтинг MPAA: R (лицам до 17 лет обязательно присутствие взрослого)

    Продолжительность: 01: 55: 03
    Качество видео: DVDRip
    Перевод: Двуголосый закадровый
    Cубтитры: нет
    Видео: Xvid, 720x544 (1.32: 1), 25 fps, ~1246 kbps avg, 0.13 bit/pixel
    Аудио: AC3, 6 ch, 448 kbps, CBR
    Код:

    Общее
    Полное имя : Lubovnaya_lihoradka.avi
    Формат : AVI
    Формат/Информация : Audio Video Interleave
    Размер файла : 1, 37 Гбайт
    Продолжительность : 1 ч. Самое интересное в это истории, что об этом Европарламент ничего не знал. 55 м.
    Общий поток : 1701 Кбит/сек
    Программа кодирования : VirtualDubMod 1.5.4.1 (build 2178/release)
    Библиотека кодирования : VirtualDubMod build 2178/release
    Видео
    Идентификатор : 0
    Формат : MPEG-4 Visual
    Профиль формата : Advanced Simple@L5
    Параметр BVOP формата : 1
    Параметр QPel формата : Нет
    Параметр GMC формата : Без точки перехода
    Параметр матрицы формата : Выборочная
    Идентификатор кодека : XVID
    Идентификатор кодека/Подсказка : XviD
    Продолжительность : 1 ч. 55 м.
    Битрейт : 1246 Кбит/сек
    Ширина : 720 пикселей
    Высота : 544 пикселя
    Соотношение сторон : 4:3
    Частота кадров : 25, 000 кадров/сек
    Цветовое пространство : YUV
    Субдискретизация насыщенности : 4:2:0
    Битовая глубина : 8 бит
    Тип развёртки : Прогрессивная
    Метод сжатия : С потерями
    Бит/(Пиксели*Кадры) : 0.127
    Размер потока : 1, 00 Гбайт (73%)
    Библиотека кодирования : XviD 1.2.0.dev47 (UTC 2006-11-01)
    Аудио
    Идентификатор : 1
    Формат : AC-3
    Формат/Информация : Audio Coding 3
    Расширение режима : CM (complete main)
    Параметр Endianness формата : Big
    Идентификатор кодека : 2000
    Продолжительность : 1 ч. 55 м.
    Вид битрейта : Постоянный
    Битрейт : 448 Кбит/сек
    Каналы : 6 каналов
    Расположение каналов : Front: L C R, Side: L R, LFE
    Частота : 48, 0 КГц
    Битовая глубина : 16 бит
    Метод сжатия : С потерями
    Размер потока : 369 Мбайт (26%)
    Выравнивание : Разделение по промежуткам
    Продолжительность промежутка : 96 мс. (2, 40 видеокадра)
    Время предзагрузки промежутка : 96 мс.
    Язык : Russian


    Скриншоты для ознакомления




    Любовная лихорадка/A Love Song for Bobby Long (2004) DVDRip
    загрузка...
    Рейтинг →
     (голосов: 1, оценка 5/5, голосовать можно 1 раз )

    Другие торренты по теме:

  • Любовная лихорадка / A Love Song for Bobby Long (2004) BDRip [H.264]


    • Комментарии (0):

      Информация

      Информация

        Посетители, находящиеся в группе Гости, не могут оставлять комментарии в данной новости.

        ↓ Меню




        ↓ Опрос

        Вы добавили сайт в закладки?
        Да
        Нет


        Top 10 за месяц (Фильмы)