.
Авторизация | Регистрация
Хочешь лучшие торренты? Добавь свой email!
Добавить

Торрент скачать бесплатно

» » Подлый Пит / Хитрый Пит / Sneaky Pete (2015) WEB-DL [H.264 / 720p-LQ] (сезон 1, серии 1 из 10) AlexFilm (обновляемая) скачать через торрент бесплатно




    Подлый Пит / Хитрый Пит / Sneaky Pete (2015) WEB-DL [H.264 / 720p-LQ] (сезон 1, серии 1 из 10) AlexFilm (обновляемая) скачать через торрент бесплатно

    Опубликовал: Админ | Дата: 8-09-2015, 04:01 | Просмотров: 236

    Производство: США
    Жанр: драма
    Режиссер: Сет Гордон

    Актеры
    Джованни Рибизи, Марин Айрлэнд, Марго Мартиндейл, Шэйн МакРей, Либэ Барер, Питер Герети, Итэн Эмбри, Доменик Ломбардоззи, Дебра Монк, Майкл Дрэйер, Брайан Крэнстон и др.

    Описание

    По сюжету молодой мошенник Пит, отсидев положенный срок, решает завязать с тёмным прошлым, примерив на себя личину бывшего сокамерника. Скрываясь от местной мафии, парень пристраивается в семейный бизнес того самого сокамерника. Со временем он осознает, что такое настоящая семья, и даже обретёт любовь всей своей жизни, но прошлые грехи не позволят ему расслабиться ни на минуту, угрожая уничтожить и главного героя, и его новую жизнь.

    Дата мировой премьеры: 7 августа 2015,
    Продолжительность: ~00: 47: 00 серия
    Качество видео: WEB-DL 720p
    Перевод: Многоголосый закадровый, профессиональный -AlexFilm
    Автор перевода: Константин Кривоногов
    Озвучка: Татьяна Манетина, Михаил Суслов, Владимир Курдов, Константин Погодаев, Михаил Алексеев
    Видео: AVC/H.264, 1280x720 (16: 9), ~4500 kb/s
    Аудио Rus: AC-3, 48, 0 kHz, 2 ch, 192 kb/s — многоголосый закадровый
    Аудио Eng: AC-3, 48, 0 kHz, 2 ch, 192 kb/s - оригинал
    Общее
    Уникальный идентификатор : 175999920816434162346441464560188646386 (0x84685A0DAA4E60869E1A7A7F435FE3F2)
    Полное имя : D: Подлый Пит (сезон любимого сериала 1) Sneaky Pete (2015) WEB-DL 720p - AlexFilmSneaky.Pete.s01e01.WEB-DL.720p.Rus.Eng.AlexFilm.mkv
    Формат : Matroska
    Версия формата : Version 4/Version 2
    Размер файла : 1, 69 Гбайт
    Продолжительность : 47 м.
    Общий поток : 5066 Кбит/сек
    Название фильма : Sneaky Pete 1x01 @ AlexFilm
    Дата кодирования : UTC 2015-09-06 15: 49: 51
    Программа кодирования : mkvmerge v7.1.0 (\'Good Love\') 64bit built on Jul 27 2014 13: 06: 55
    Библиотека кодирования : libebml v1.3.0 + libmatroska v1.4.1
    Видео
    Идентификатор : 1
    Формат : AVC
    Формат/Информация : Advanced Video Codec
    Профиль формата : High@L4.1
    Параметр CABAC формата : Да
    Параметр ReFrames формата : 9 кадров
    Идентификатор кодека : V_MPEG4/ISO/AVC
    Битрейт : 4581 Кбит/сек
    Ширина : 1280 пикселей
    Высота : 720 пикселей
    Соотношение сторон : 16: 9
    Режим частоты кадров : Переменный
    Цветовое пространство : YUV
    Субдискретизация насыщенности : 4: 2: 0
    Битовая глубина : 8 бит
    Тип развёртки : Прогрессивная
    Библиотека кодирования : x264 core 148
    Настройки программы : cabac=1/ref=9/deblock=1: -3: -3/analyse=0x3: 0x133/me=umh/subme=10/psy=1/psy_rd=1.05: 0.00/mixed_ref=1/me_range=48/chroma_me=1/trellis=2/8x8dct=1/cqm=0/deadzone=21, 11/fast_pskip=0/chroma_qp_offset=-2/threads=12/lookahead_threads=2/sliced_threads=0/nr=0/decimate=1/interlaced=0/bluray_compat=0/constrained_intra=0/bframes=8/b_pyramid=2/b_adapt=2/b_bias=0/direct=3/weightb=1/open_gop=0/weightp=2/keyint=240/keyint_min=24/scenecut=40/intra_refresh=0/rc_lookahead=150/rc=crf/mbtree=1/crf=17.0/qcomp=0.80/qpmin=0/qpmax=69/qpstep=4/ip_ratio=1.40/aq=3: 1.00
    Язык : English
    Default : Да
    Forced : Нет
    Аудио #1
    Идентификатор : 2
    Формат : AC-3
    Формат/Информация : Audio Coding 3
    Расширение режима : CM (complete main)
    Параметр Endianness формата : Big
    Идентификатор кодека : A_AC3
    Продолжительность : 47 м.
    Вид битрейта : Постоянный
    Битрейт : 192 Кбит/сек
    Каналы : 2 канала
    Расположение каналов : Front: L R
    Частота : 48, 0 КГц
    Метод сжатия : С потерями
    Размер потока : 65, 4 Мбайт (4%)
    Заголовок : DD2.0 AlexFilm
    Язык : Russian
    Default : Да
    Forced : Нет
    Аудио #2
    Идентификатор : 3
    Формат : AC-3
    Формат/Информация : Audio Coding 3
    Расширение режима : CM (complete main)
    Параметр Endianness формата : Big
    Идентификатор кодека : A_AC3
    Продолжительность : 47 м.
    Вид битрейта : Постоянный
    Битрейт : 192 Кбит/сек
    Каналы : 2 канала
    Расположение каналов : Front: L R
    Частота : 48, 0 КГц
    Метод сжатия : С потерями
    Размер потока : 65, 4 Мбайт (4%)
    Заголовок : DD2.0 Original
    Язык : English
    Default : Нет
    Forced : Нет


    Скриншоты для ознакомления




    Подлый Пит/Хитрый Пит/Sneaky Pete (2015) WEB-DL [H.264/720p-LQ] (сезон 1, серии 1 из 10) AlexFilm (обновляемая)
    загрузка...
    Рейтинг →
     (голосов: 1, оценка 3/5, голосовать можно 1 раз )

    Другие торренты по теме:

  • Подлый Пит / Хитрый Пит / Sneaky Pete (2015) WEB-DLRip (cезон 1, серии 1- из ) Jimmy J (обновляемая) скачать через торрент бесплатно
  • Подлый Пит / Хитрый Пит / Sneaky Pete (2015) WEB-DLRip (сезон 1, серии 1 из 10) AlexFilm (обновляемая) скачать через торрент бесплатно
  • Подлый Пит / Хитрый Пит / Sneaky Pete (2015) WEBRip (сезон 1, серии 1 из 10) LostFilm (обновляемая)
  • Подлый Пит / Хитрый Пит / Sneaky Pete (2015) WEBRip [H.264 / 1080p] (сезон 1, серии 1 из 10) LostFilm (обновляемая)


    • Комментарии (0):

      Информация

      Информация

        Посетители, находящиеся в группе Гости, не могут оставлять комментарии в данной новости.

        ↓ Меню




        ↓ Опрос

        Вы добавили сайт в закладки?
        Да
        Нет


        Top 10 за месяц (Фильмы)