.
Авторизация | Регистрация
Хочешь лучшие торренты? Добавь свой email!
Добавить

Торрент скачать бесплатно

» » Событие / The Event (2010 - 2011) WEB-DLRip (сезон 1 серии 1 - 22 из 22) LostFilm скачать через торрент бесплатно




    Событие / The Event (2010 - 2011) WEB-DLRip (сезон 1 серии 1 - 22 из 22) LostFilm скачать через торрент бесплатно

    Опубликовал: Админ | Дата: 8-09-2015, 04:01 | Просмотров: 112

    Производство: США
    Жанр: фантастика, триллер, драма, детектив
    Режиссер: Джеффри Рейнер

    Актеры
    Джейсон Риттер, Сара Ремер, Лора Иннес, Йен Энтони Дэйл, Скотт Паттерсон, Тейлор Коул и др.

    Описание

    Загадочная и напряженная история с непредсказуемыми поворотами сюжета начинается с пропажи невесты главного героя, а точнее будет сказать, исчезновения, поскольку возникает впечатление, что ее и не существовало: никто не может вспомнить, что когда-либо ее видел или что-либо слышал о ней. Бросающийся на поиски герой, исполненный решимости разгадать загадку, добирается до самых верхних эшелонов власти и неожиданно понимает, что стал пешкой в таинственной игре, ведущейся на уровне сильных мира сего, известных и, до поры, нет. И игра эта, похоже, может не только повлиять на жизнь каждого, но и перевернуть наши представления о мире.

    Продолжительность: 00: 43: 00 серия
    Качество видео: WEB-DLRip
    Перевод: Многоголосый закадровый, профессиональный - LostFilm
    Видео: Xvid, 704x400720х400 (16: 9), ~1160 kbps
    Аудио: MP3, 48 kHz, 2 ch, 192 kbps, VBR
    Код:

    General
    Complete name : E:СобытиеThe.Event.s01e08.rus.LostFilm.avi
    Format : AVI
    Format/Info : Audio Video Interleave
    File size : 418 MiB
    Duration : 42mn 55s
    Overall bit rate mode : Variable
    Overall bit rate : 1 363 Kbps
    Writing application : Nandub v1.0rc2
    Writing library : Nandub build 1853/release
    Video
    ID : 0
    Format : MPEG-4 Visual
    Format profile : Advanced Simple@L5
    Format settings, BVOP : No
    Format settings, QPel : No
    Format settings, GMC : No warppoints
    Format settings, Matrix : Custom
    Codec ID : XVID
    Codec ID/Hint : XviD
    Duration : 42mn 55s
    Bit rate : 1 168 Kbps
    Width : 704 pixels
    Height : 400 pixels
    Display aspect ratio : 16:9
    Frame rate : 23.976 fps
    Color space : YUV
    Chroma subsampling : 4:2:0
    Bit depth : 8 bits
    Scan type : Progressive
    Compression mode : Lossy
    Bits/(Pixel*Frame) : 0.173
    Stream size : 359 MiB (86%)
    Writing library : XviD 1.2.1 (UTC 2008-12-04)
    Audio
    ID : 1
    Format : MPEG Audio
    Format version : Version 1
    Format profile : Layer 3
    Mode : Joint stereo
    Mode extension : MS Stereo
    Codec ID : 55
    Codec ID/Hint : MP3
    Duration : 42mn 55s
    Bit rate mode : Variable
    Bit rate : 182 Kbps
    Nominal bit rate : 192 Kbps
    Channel(s) : 2 channels
    Sampling rate : 48.0 KHz
    Compression mode : Lossy
    Stream size : 56.0 MiB (13%)
    Alignment : Aligned on interleaves
    Interleave, duration : 24 ms (0.58 video frame)
    Interleave, preload duration : 526 ms
    Writing library : LAME3.97b
    Encoding settings : -m j -V 4 -q 3 -lowpass 18.6 --abr 192


    Скриншоты для ознакомления




    Событие/The Event (2010 - 2011) WEB-DLRip (сезон 1 серии 1 - 22 из 22) LostFilm
    загрузка...
    Рейтинг →
     (голосов: 1, оценка 3/5, голосовать можно 1 раз )

    Другие торренты по теме:

  • Книжная серия | Детектив-событие [48 книг] (2007-2015) [FB2] скачать через торрент бесплатно
  • Ален Бадью | Философия и событие. Беседы с кратким введением в философию Алена Бадью (2013) [DJVU] скачать через торрент бесплатно
  • Событие / Sobytie (2015) WEB-DL [H.264 / 720p-LQ]


    • Комментарии (0):

      Информация

      Информация

        Посетители, находящиеся в группе Гости, не могут оставлять комментарии в данной новости.

        ↓ Меню




        ↓ Опрос

        Вы добавили сайт в закладки?
        Да
        Нет


        Top 10 за месяц (Фильмы)