.
Авторизация | Регистрация
Хочешь лучшие торренты? Добавь свой email!
Добавить

Торрент скачать бесплатно

» » Кухня (2015) SATRip (сезон 5, серии 1-2 из 20) (обновляемая) скачать через торрент бесплатно




    Кухня (2015) SATRip (сезон 5, серии 1-2 из 20) (обновляемая) скачать через торрент бесплатно

    Опубликовал: Админ | Дата: 8-09-2015, 04:01 | Просмотров: 96

    Производство: Россия/СТС
    Жанр: комедия
    Режиссер: Антон Федотов

    Актеры
    Дмитрий Назаров, Марк Богатырев, Елена Подкаминская, Дмитрий Нагиев, Марина Могилевская, Григорий Сиятвинда, Елена Ксенофонтова, Филипп Бледный, Виктор Хориняк, Сергей Лавыгин, Михаил Тарабукин, Сергей Епишев, Никита Тарасов, Екатерина Кузнецова, Ольга Кузьмина, Жаныл Асанбекова, Михаил Башкатов, Людмила Максакова, Валерия Федорович, Константин Чепурин, Мария Горбань, Елена Чернявская

    Описание

    В пятом сезон любимого сериалае сериала команде Виктора Баринова придется уйти работать в другой ресторан. Зрители встретятся с давно полюбившимися героями и познакомятся с новыми персонажами, которые не готовы мириться со вспыльчивым характером шефа. Виктория Сергеевна вот-вот станет мамой, но простит ли она Макса, который обещает стать более зрелым и ответственным?

    Продолжительность: ~00: 25: 00 серия
    Качество видео: SATRip
    Видео: XviD, 720 x 400 (16: 9), ~1800 Кбит/сек
    Аудио: MP3 2.0, 128 Кбит/сек
    Код:
    Общее
    Полное имя : F:ВидеоКухня. 5 сезон любимого сериала (2015) SATRipКухня_02.avi
    Формат : AVI
    Формат/Информация : Audio Video Interleave
    Размер файла : 326 Мбайт
    Продолжительность : 23 м.
    Общий поток : 1928 Кбит/сек
    Библиотека кодирования : VirtualDub build 29808/release
    Видео
    Идентификатор : 0
    Формат : MPEG-4 Visual
    Профиль формата : Advanced Simple@L5
    Параметр BVOP формата : 3
    Параметр QPel формата : Нет
    Параметр GMC формата : Без точки перехода
    Параметр матрицы формата : Default (H.263)
    Идентификатор кодека : XVID
    Идентификатор кодека/Подсказка : XviD
    Продолжительность : 23 м.
    Битрейт : 1791 Кбит/сек
    Ширина : 720 пикселей
    Высота : 400 пикселей
    Соотношение сторон : 16:9
    Частота кадров : 25, 000 кадров/сек
    Цветовое пространство : YUV
    Субдискретизация насыщенности : 4:2:0
    Битовая глубина : 8 бит
    Тип развёртки : Прогрессивная
    Метод сжатия : С потерями
    Бит/(Пиксели*Кадры) : 0.249
    Размер потока : 303 Мбайт (93%)
    Библиотека кодирования : XviD 1.2.1 (UTC 2008-12-04)
    Аудио
    Идентификатор : 1
    Формат : MPEG Audio
    Версия формата : Version 1
    Профиль формата : Layer 3
    Идентификатор кодека : 55
    Идентификатор кодека/Подсказка : MP3
    Продолжительность : 23 м.
    Вид битрейта : Постоянный
    Битрейт : 128 Кбит/сек
    Каналы : 2 канала
    Частота : 48, 0 КГц
    Метод сжатия : С потерями
    Размер потока : 21, 7 Мбайт (7%)
    Выравнивание : Соединение по промежуткам
    Продолжительность промежутка : 40 мс. О таком странном сюжете не догадывалась даже Шакира. (1, 00 видеокадр)
    Время предзагрузки промежутка : 504 мс.
    Библиотека кодирования : LAME3.99r
    Настройки программы : -m s -V 4 -q 2 -lowpass 17 -b 128


    Скриншоты для ознакомления




    Кухня (2015) SATRip (сезон 5, серии 1-2 из 20) (обновляемая)
    загрузка...
    Рейтинг →
     (голосов: 1, оценка 3/5, голосовать можно 1 раз )

    Другие торренты по теме:

  • На рыбалку. Рыбацкая кухня (2014) SATRip
  • Кухня (2014) SATRip (Сезон 4, Серия 1-2 из 20) (Обновляемая) скачать через торрент бесплатно
  • Большая кухня (2015.09.06) SATRip скачать через торрент бесплатно
  • Кухня (2016) SATRip (сезон 6, серии 1-2 из 20) (обновляемая)
  • Кухня (2016) SATRip [H.264] (сезон 6, серии 1-3 из 20) (обновляемая)
  • НТВ-видение: Турецкая кухня. Часть первая (2016.06.04) SATRip
  • НТВ-видение: Турецкая кухня. Часть вторая (2016.06.05) SATRip


    • Комментарии (0):

      Информация

      Информация

        Посетители, находящиеся в группе Гости, не могут оставлять комментарии в данной новости.

        ↓ Меню




        ↓ Опрос

        Вы добавили сайт в закладки?
        Да
        Нет


        Top 10 за месяц (Фильмы)