.
Авторизация | Регистрация
Хочешь лучшие торренты? Добавь свой email!
Добавить

Торрент скачать бесплатно

» » Интерны (2015) WEB-DLRip [H.264 / 720p-LQ] (сезон 13, серии 1- из 20) (обновляемая) скачать через торрент бесплатно




    Интерны (2015) WEB-DLRip [H.264 / 720p-LQ] (сезон 13, серии 1- из 20) (обновляемая) скачать через торрент бесплатно

    Опубликовал: Админ | Дата: 8-09-2015, 04:01 | Просмотров: 192

    Производство: Россия, Комеди Клаб Продакшн
    Жанр: комедия
    Режиссер: Максим Пежемский, Дина Штурманова

    Актеры
    Иван Охлобыстин, Илья Глинников, Александр Ильин мл., Вадим Демчог, Светлана Камынина, Юлия Назаренко-Благая, Один Ланд Байрон, Светлана Пермякова, Илья Шидловский, Александр Ляпин, Аглая Тарасова и др.

    Описание фильма

    Жизнь обычной многопрофильной больницы — сплошная рутина. Ненормированный рабочий день, тяжелая, неблагодарная работа, а также инопланетяне, электрики, спивающийся венеролог, озабоченная медсестра, больной-эксгибиционист, ручная крыса, четыре интерна, которые все время расстраивают своего руководителя... Как Иван Охлобыстин в лице доктора Быкова справится со всей этой суетой?

    Продолжительность: ~ 00: 25: 00 серия
    Качество видео: WEB-DLRip
    Видео: AVC/H.264, 1280x720 (16: 9), ~3000 Kbps
    Аудио: AC3, 2 ch, 192 Kbps
    Код:
    Общее
    Уникальный идентификатор : 226624318188683518940682108711561714368 (0xAA7E418CA9A77C0387D6987FE0C5DAC0)
    Полное имя : F:DOWNLOADSИнтерны (13 сезон любимого сериала) 2015 WEB-DLRip 720Интерны 13 - 01 серия.mkv
    Формат : Matroska
    Версия формата : Version 2
    Размер файла : 592 Мбайт
    Продолжительность : 24 м.
    Общий поток : 3332 Кбит/сек
    Дата кодирования : UTC 2015-09-07 17:46:59
    Программа кодирования : mkvmerge v7.8.0 (\'River Man\') 32bit built on Apr 3 2015 12:11:22
    Библиотека кодирования : libebml v1.3.1 + libmatroska v1.4.2
    Видео
    Идентификатор : 1
    Формат : AVC
    Формат/Информация : Advanced Video Codec
    Профиль формата : High@L4
    Параметр CABAC формата : Да
    Параметр ReFrames формата : 8 кадров
    Идентификатор кодека : V_MPEG4/ISO/AVC
    Продолжительность : 24 м.
    Битрейт : 3074 Кбит/сек
    Ширина : 1280 пикселей
    Высота : 720 пикселей
    Соотношение сторон : 16:9
    Режим частоты кадров : Постоянный
    Частота кадров : 25, 000 кадров/сек
    Цветовое пространство : YUV
    Субдискретизация насыщенности : 4:2:0
    Битовая глубина : 8 бит
    Тип развёртки : Прогрессивная
    Бит/(Пиксели*Кадры) : 0.133
    Размер потока : 546 Мбайт (92%)
    Библиотека кодирования : x264 core 142 r2455 021c0dc
    Настройки программы : cabac=1/ref=8/deblock=1:-1:-1/analyse=0x3:0x133/me=umh/subme=9/psy=1/psy_rd=1.00:0.15/mixed_ref=1/me_range=16/chroma_me=1/trellis=2/8x8dct=1/cqm=0/deadzone=21, 11/fast_pskip=1/chroma_qp_offset=-3/threads=24/lookahead_threads=2/sliced_threads=0/nr=0/decimate=1/interlaced=0/bluray_compat=0/constrained_intra=0/bframes=3/b_pyramid=2/b_adapt=2/b_bias=0/direct=3/weightb=1/open_gop=0/weightp=2/keyint=250/keyint_min=25/scenecut=40/intra_refresh=0/rc_lookahead=60/rc=crf/mbtree=1/crf=17.0/qcomp=0.60/qpmin=0/qpmax=69/qpstep=4/vbv_maxrate=3600/vbv_bufsize=3600/crf_max=0.0/nal_hrd=none/filler=0/ip_ratio=1.40/aq=1:1.00
    Default : Да
    Forced : Нет
    Аудио
    Идентификатор : 2
    Формат : AC-3
    Формат/Информация : Audio Coding 3
    Расширение режима : CM (complete main)
    Параметр Endianness формата : Big
    Идентификатор кодека : A_AC3
    Продолжительность : 24 м.
    Вид битрейта : Постоянный
    Битрейт : 192 Кбит/сек
    Каналы : 2 канала
    Расположение каналов : Front: L R
    Частота : 48, 0 КГц
    Метод сжатия : С потерями
    Размер потока : 34, 1 Мбайт (6%)
    Default : Да
    Forced : Нет


    Скриншоты для ознакомления




    Интерны (2015) WEB-DLRip [H.264/720p-LQ] (сезон 13, серии 1- из 20) (обновляемая)
    загрузка...
    Рейтинг →
     (голосов: 1, оценка 4/5, голосовать можно 1 раз )

    Другие торренты по теме:

  • Интерны (Серии 1-224 из 224) и Фильм о фильме (1-2 части) (2010-2014) DVDRip / SATRip / WEB-DLRip
  • Интерны (2014) WEB-DLRip (сезон 11, 1-2 серия из 23) (Обновляемая) скачать через торрент бесплатно
  • Интерны (2014) WEB DLRip [H.264] (Сезон 11, серии 1-6 из 23) (Обновляемая)
  • Интерны (2015) WEB-DLRip (сезон 12, серии 1- из 20) (обновлянмая)
  • Интерны (2015) WEB-DLRip [H.264 / 720p-LQ] (сезон 12, серии 1- из 20) (обновлянмая)
  • Интерны (2015) WEB-DLRip [H.264] (сезон 12, серии 1-2 из 20) (обновляемая) скачать через торрент бесплатно
  • Интерны (2015) WEB-DLRip (сезон 13, серии 1- из 20) (обновляемая) скачать через торрент бесплатно
  • Интерны (2015) WEB-DLRip [H.264] (сезон 13, серии 1-3 из 20) (обновляемая) скачать через торрент бесплатно


    • Комментарии (0):

      Информация

      Информация

        Посетители, находящиеся в группе Гости, не могут оставлять комментарии в данной новости.

        ↓ Меню




        ↓ Опрос

        Вы добавили сайт в закладки?
        Да
        Нет


        Top 10 за месяц (Фильмы)