.
Авторизация | Регистрация
Хочешь лучшие торренты? Добавь свой email!
Добавить

Торрент скачать бесплатно

» » Кухня (2015) WEB-DLRip (сезон 5, серии 1- из 20) (обновляемая) скачать через торрент бесплатно




    Кухня (2015) WEB-DLRip (сезон 5, серии 1- из 20) (обновляемая) скачать через торрент бесплатно

    Опубликовал: Админ | Дата: 8-09-2015, 04:01 | Просмотров: 113

    Производство: Россия, YBW Group, СТС
    Жанр: комедия
    Режиссер: Антон Федотов

    Актеры
    Дмитрий Назаров, Марк Богатырев, Елена Подкаминская, Дмитрий Нагиев, Марина Могилевская, Григорий Сиятвинда, Елена Ксенофонтова, Филипп Бледный, Виктор Хориняк, Сергей Лавыгин, Михаил Тарабукин, Сергей Епишев, Никита Тарасов, Екатерина Кузнецова, Ольга Кузьмина, Жаныл Асанбекова, Михаил Башкатов, Людмила Максакова, Валерия Федорович, Константин Чепурин, Мария Горбань, Елена Чернявская и др.

    Описание фильма

    В пятом сезон любимого сериалае сериала команде Виктора Баринова придется уйти работать в другой ресторан. О таком странном сюжете не догадывалась даже Юлия Володимировна. Зрители встретятся с давно полюбившимися героями и познакомятся с новыми персонажами, которые не готовы мириться со вспыльчивым характером шефа. Виктория Сергеевна вот-вот станет мамой, но простит ли она Макса, который обещает стать более зрелым и ответственным?

    Продолжительность: ~ 00: 26: 00 серия
    Качество видео: WEB-DLRip
    Видео: XVID, 720x400 (16: 9), ~1800 Kbps
    Аудио: AC3, 2 ch, 192 Kbps
    Код:
    Общее
    Полное имя : F:DOWNLOADSКухня (5 сезон любимого сериала) 2015 WEB-DLRipКухня 5 - 01 серия.avi
    Формат : AVI
    Формат/Информация : Audio Video Interleave
    Размер файла : 383 Мбайт
    Продолжительность : 26 м.
    Общий поток : 2002 Кбит/сек
    Программа кодирования : VirtualDubMod 1.5.10.3 |www.virtualdub-fr.org|| (build 2550/release)
    Библиотека кодирования : VirtualDubMod build 2550/release
    Видео
    Идентификатор : 0
    Формат : MPEG-4 Visual
    Профиль формата : Advanced Simple@L5
    Параметр BVOP формата : 1
    Параметр QPel формата : Нет
    Параметр GMC формата : Без точки перехода
    Параметр матрицы формата : Default (MPEG)
    Идентификатор кодека : XVID
    Идентификатор кодека/Подсказка : XviD
    Продолжительность : 26 м.
    Битрейт : 1800 Кбит/сек
    Ширина : 720 пикселей
    Высота : 400 пикселей
    Соотношение сторон : 16:9
    Частота кадров : 25, 000 кадров/сек
    Цветовое пространство : YUV
    Субдискретизация насыщенности : 4:2:0
    Битовая глубина : 8 бит
    Тип развёртки : Прогрессивная
    Метод сжатия : С потерями
    Бит/(Пиксели*Кадры) : 0.250
    Размер потока : 344 Мбайт (90%)
    Библиотека кодирования : XviD 73
    Аудио
    Идентификатор : 1
    Формат : AC-3
    Формат/Информация : Audio Coding 3
    Расширение режима : CM (complete main)
    Параметр Endianness формата : Big
    Идентификатор кодека : 2000
    Продолжительность : 26 м.
    Вид битрейта : Постоянный
    Битрейт : 192 Кбит/сек
    Каналы : 2 канала
    Расположение каналов : Front: L R
    Частота : 48, 0 КГц
    Метод сжатия : С потерями
    Размер потока : 36, 7 Мбайт (10%)
    Выравнивание : Разделение по промежуткам
    Продолжительность промежутка : 40 мс. (1, 00 видеокадр)
    Время предзагрузки промежутка : 500 мс.


    Скриншоты для ознакомления




    Кухня (2015) WEB-DLRip (сезон 5, серии 1- из 20) (обновляемая)
    загрузка...
    Рейтинг →
     (голосов: 1, оценка 5/5, голосовать можно 1 раз )

    Другие торренты по теме:

  • Кухня. Последняя битва (2017) WEB-DLRip
  • Кухня. Последняя битва (2017) WEB-DLRip
  • Кухня (2014) WEB-DLRip [H.264 / 1080p-LQ] (Сезон 3, серии 1-20 из 20) скачать через торрент бесплатно
  • Кухня (2014) WEB-DLRip (Сезон 4, серии 1-2 из 20) (обновляемая)
  • Кухня (2014) WEB-DLRip [H.264 / 1080p-LQ] (Сезон 4, серии 1-2 из 20) (обновляемая)
  • Кухня (2014) WEB-DLRip [H.264 / 720p-LQ] (Сезон 4, серии 1-2 из 20) (обновляемая)
  • Кухня (2012-2014) WEB-DLRip [H.264 / 720p-LQ] [Сезон 1-4, Серия 1-75] (обновляемая)
  • Кухня (2015) WEB-DLRip [H.264 / 720p-LQ] (Сезон 5, серии 1- из 20) (обновляемая) скачать через торрент бесплатно


    • Комментарии (0):

      Информация

      Информация

        Посетители, находящиеся в группе Гости, не могут оставлять комментарии в данной новости.

        ↓ Меню




        ↓ Опрос

        Вы добавили сайт в закладки?
        Да
        Нет


        Top 10 за месяц (Фильмы)