.
Авторизация | Регистрация
Хочешь лучшие торренты? Добавь свой email!
Добавить

Торрент скачать бесплатно

» » Человеческие желания / Human Desires (1997) DVDRip [EN] скачать через торрент бесплатно




    Человеческие желания / Human Desires (1997) DVDRip [EN] скачать через торрент бесплатно

    Опубликовал: Админ | Дата: 7-09-2015, 04:00 | Просмотров: 138

    Производство: США, Magic Hour Pictures
    Жанр: Триллер
    Режиссер: Эллен Ёрншоу

    Актеры
    Шэннон Твид, Кристиан Ноубл, Доун Энн Биллингс, Эшби Адамс, Пегги Трентини, Дьюк Страуд, Г.В. Стивенс, Стэк Пирс, Виктор Кампос

    Описание

    Когда Дин Томас, бывший полицейский, приходит по приглашению на вечеринку элиты индустрии моды, которую устраивает Алисия Ройэл, одна из красавиц-манекенщиц совершает самоубийство. Но действительно ли это так? Алисия нанимает Дина для расследования, и подозрения начинают множиться. Сможет ли талант Алисии к обольщению помочь Дину найти убийцу?

    Продолжительность: 01: 34: 19
    Качество видео: DVDRip
    Перевод: Отсутствует
    Язык озвучки: Английский
    Видео: Xvid, 640x480, ~913 Kbps
    Аудио: MP3, 2 ch, 128 Kbps, VBR
    Код:

    General
    Complete name : D:DownloadsMovies With Original LanguageHuman Desires (1997).avi
    Format : AVI
    Format/Info : Audio Video Interleave
    File size : 704 MiB
    Duration : 1h 34mn
    Overall bit rate mode : Variable
    Overall bit rate : 1 043 Kbps
    Writing application : VirtualDubMod 1.5.4.1 (build 2178/release)
    Writing library : VirtualDubMod build 2178/release
    Video
    ID : 0
    Format : MPEG-4 Visual
    Format profile : Advanced Simple@L5
    Format settings, BVOP : 1
    Format settings, QPel : No
    Format settings, GMC : No warppoints
    Format settings, Matrix : Custom
    Codec ID : XVID
    Codec ID/Hint : XviD
    Duration : 1h 34mn
    Bit rate : 913 Kbps
    Width : 640 pixels
    Height : 480 pixels
    Display aspect ratio : 4:3
    Frame rate : 23.976 fps
    Color space : YUV
    Chroma subsampling : 4:2:0
    Bit depth : 8 bits
    Scan type : Progressive
    Compression mode : Lossy
    Bits/(Pixel*Frame) : 0.124
    Stream size : 616 MiB (88%)
    Writing library : XviD 1.1.2 (UTC 2006-11-01)
    Audio
    ID : 1
    Format : MPEG Audio
    Format version : Version 1
    Format profile : Layer 3
    Mode : Joint stereo
    Mode extension : MS Stereo
    Codec ID : 55
    Codec ID/Hint : MP3
    Duration : 1h 34mn
    Bit rate mode : Variable
    Bit rate : 117 Kbps
    Nominal bit rate : 128 Kbps
    Channel(s) : 2 channels
    Sampling rate : 48.0 KHz
    Compression mode : Lossy
    Stream size : 79.2 MiB (11%)
    Alignment : Aligned on interleaves
    Interleave, duration : 24 ms (0.58 video frame)
    Interleave, preload duration : 156 ms
    Writing library : LAME3.98r
    Encoding settings : -m j -V 4 -q 2 -lowpass 17 --abr 128
    Language : English


    Скриншоты для ознакомления




    Человеческие желания/Human Desires (1997) DVDRip [EN]
    загрузка...
    Рейтинг →
     (голосов: 1, оценка 4/5, голосовать можно 1 раз )

    Другие торренты по теме:

  • Военная приемка. «Охота» на человеческие шаги (15.11.2015) SATRip скачать через торрент бесплатно
  • А. Печчеи | Человеческие качества (1985) [PDF]
  • М. П. Гапочка, Ю. Б. Пищик | Идеалы человеческие и божественные (1975) [DJVU, PDF]


    • Комментарии (0):

      Информация

      Информация

        Посетители, находящиеся в группе Гости, не могут оставлять комментарии в данной новости.

        ↓ Меню




        ↓ Опрос

        Вы добавили сайт в закладки?
        Да
        Нет


        Top 10 за месяц (Фильмы)