.
Авторизация | Регистрация
Хочешь лучшие торренты? Добавь свой email!
Добавить

Торрент скачать бесплатно

» » Почтальон / The Postman (1997) HDTVRip скачать через торрент бесплатно




    Почтальон / The Postman (1997) HDTVRip скачать через торрент бесплатно

    Опубликовал: Админ | Дата: 4-09-2015, 04:00 | Просмотров: 102

    Производство: США
    Жанр: Фантастика, Боевик, Драма, Приключения
    Режиссер: Кевин Костнер

    Актеры
    Кевин Костнер, Уилл Пэттон, Ларенц Тейт, Оливия Уильямс, Джеймс Руссо, Даниэль фон Барген, Том Петти, Скотт Бэйрстоу, Джованни Рибизи, Роберта Максвелл

    Описание

    Фильм снят по книге Дэвида Брина. Действие происходит в будущем. О таком странном сюжете не догадывалась даже Шакира. После глобальной войны и эпидемии выжившие остатки людей селятся разрозненными группами на территории бывших Соединенных Штатов Америки.
    Герой Кевина Костнера предпочитает жить одиночкой. Он скитается вместе со своим дрессированным мулом из селения в селение, давая представления из Шекспира. Правит всем тиран — генерал Бетлехем. Его армия собирает дань и рекрутов со всех, кто пытается жить мирно.
    Героя фильма насильно взяли в армию генерала, но он бежал и нашел в джипе скелет почтальона, надел его форму и взял сумку с письмами. Придя в один из лагерей, он представился почтальоном новых возрожденных Соединенных Штатов Америки.
    Люди поверили ему, также в городке он нашел свою любовь… Десятки последователей почтальона стали доставлять письма, что привело к вооруженному столкновению сил генерала с новой армией Свободы.

    Продолжительность: 02: 57: 50
    Качество видео: HDTVRip
    Перевод: Многоголосый закадровый
    Видео: Xvid, 720 x 304, (2, 368: 1), 23.976 fps, ~1429 Кбит/с
    Аудио: AC3, 6 ch, 320 Кбит/с
    Семпл: Скачать
    Код:

    General
    Complete name : D:На новые релизыPochtalyon.1997.XviD.HDRip.avi
    Format : AVI
    Format/Info : Audio Video Interleave
    Format profile : OpenDML
    File size : 2.18 GiB
    Duration : 2h 57mn
    Overall bit rate : 1 755 Kbps
    Movie name : Pochtalyon.1997.XviD.HDRip
    Director : MetionInka
    Recorded date : 2009/10/11
    Writing application : VirtualDubMod 1.5.10.2 (build 2540/release)
    Writing library : VirtualDubMod build 2540/release
    Copyright : RG Torrents.ru
    Video
    ID : 0
    Format : MPEG-4 Visual
    Format profile : Advanced Simple@L5
    Format settings, BVOP : 2
    Format settings, QPel : No
    Format settings, GMC : No warppoints
    Format settings, Matrix : Custom
    Muxing mode : Packed bitstream
    Codec ID : XVID
    Codec ID/Hint : XviD
    Duration : 2h 57mn
    Bit rate : 1 423 Kbps
    Width : 720 pixels
    Height : 304 pixels
    Display aspect ratio : 2.35:1
    Frame rate : 23.976 fps
    Color space : YUV
    Chroma subsampling : 4:2:0
    Bit depth : 8 bits
    Scan type : Progressive
    Compression mode : Lossy
    Bits/(Pixel*Frame) : 0.271
    Stream size : 1.77 GiB (81%)
    Writing library : XviD 1.2.0.dev47 (UTC 2006-11-01)
    Audio
    ID : 1
    Format : AC-3
    Format/Info : Audio Coding 3
    Mode extension : CM (complete main)
    Format settings, Endianness : Big
    Codec ID : 2000
    Duration : 2h 57mn
    Bit rate mode : Constant
    Bit rate : 320 Kbps
    Channel(s) : 6 channels
    Channel positions : Front: L C R, Side: L R, LFE
    Sampling rate : 48.0 KHz
    Bit depth : 16 bits
    Compression mode : Lossy
    Stream size : 407 MiB (18%)
    Alignment : Split accross interleaves
    Interleave, duration : 42 ms (1.00 video frame)
    Interleave, preload duration : 500 ms


    Скриншоты для ознакомления




    Почтальон/The Postman (1997) HDTVRip
    загрузка...
    Рейтинг →
     (голосов: 1, оценка 3/5, голосовать можно 1 раз )

    Другие торренты по теме:

  • Почтальон Пэт / Postman Pat: The Movie (2014) HDRip [EN]
  • Почтальон Пэт / Postman Pat: The Movie (2014) HDRip [Line]
  • Почтальон Пэт / Postman Pat: The Movie (2014) HDRip [Line]
  • Почтальон / The Postman (1997) BDRip [1080p]
  • Почтальон / The Postman (1997) HDRip скачать через торрент бесплатно
  • Почтальон Пэт / Postman Pat: The Movie (2014) HDRip [iTunes Russia] скачать через торрент бесплатно
  • Почтальон Пэт / Postman Pat: The Movie (2014) HDRip [iTunes Russia] скачать через торрент бесплатно
  • Почтальон Пэт / Postman Pat: The Movie (2014) BDRip [720p] скачать через торрент бесплатно


    • Комментарии (0):

      Информация

      Информация

        Посетители, находящиеся в группе Гости, не могут оставлять комментарии в данной новости.

        ↓ Меню




        ↓ Опрос

        Вы добавили сайт в закладки?
        Да
        Нет


        Top 10 за месяц (Фильмы)