.
Авторизация | Регистрация
Хочешь лучшие торренты? Добавь свой email!
Добавить

Торрент скачать бесплатно

» » Масада / Masada (1981) DVDRip [H.264] (сезон 1, серии 1-4 из 4) Наследие скачать через торрент бесплатно




    Масада / Masada (1981) DVDRip [H.264] (сезон 1, серии 1-4 из 4) Наследие скачать через торрент бесплатно

    Опубликовал: Админ | Дата: 31-08-2015, 04:00 | Просмотров: 155

    Производство: США, UNIVERSAL an MCA company
    Жанр: драма, боевик, исторический
    Режиссер: Борис Сагал

    Актеры
    Питер О`Тул, Питер Штраусс, Майкл Шилло, Кристофер Биггинс, Клайв Фрэнсис, Дэвид Уорнер, Дэвид Опатошу, Дэвид Мауро, Дэвид А. Блок, Джулия Пагано, Джозеф Уайзмен, Джо Сагал, Вернон Добчефф, Барбара Каррера, Алан Файнстайн, Alexander Peleg, Энтони Куэйл, Хайнц Бернард, Ричард Пирсон, Пол Л. Смит

    Описание

    Иудейская война 66–73 гг. н. э. Флавиус Сильва, полководец римской армии в Палестине, стремится к разумному компромиссу с радикальным движением евреев-зилотов и выводу своего легиона из Иудеи. Он командует знаменитым Десятым легионом X \'\'Фретензис\'\', любимым легионом Юлия Цезаря. Но политика и деятели Рима принуждают его начать осаду крепости Масада. Инженерному гению римлян предстоит противостоять суровым климатическим и природным условиям, а также энергии и словно облаком суровым изобретательности Элеазара бен-Яира и его сторонников...

    Продолжительность: 02: 11: 51
    Качество видео: DVDRip
    Перевод: Многоголосый закадровый, профессиональный - студия Наследие по заказу ОРТ
    Видео: AVC/H.264, 704х528, ~1402 kbps
    Аудио: #1 Rus: AC3, 2 ch, 192 kbps - многоголосый закадровый
    Аудио: #2 Eng: AC3, 2 ch, 192 kbps - оригинал
    Код:

    Общее
    Уникальный идентификатор : 241797690206916336875696218455708017959 (0xB5E88A8C6E8046CD8E7CE399C3582527)
    Полное имя : G:Масада.1981Масада.1981.mkv
    Формат : Matroska
    Версия формата : Version 4/Version 2
    Размер файла : 1, 68 Гбайт
    Продолжительность : 2 ч. 11 м.
    Общий поток : 1822 Кбит/сек
    Название фильма : Release for Topmost
    Дата кодирования : UTC 2015-08-29 07:07:52
    Программа кодирования : mkvmerge v6.2.0 (\'Promised Land\') built on Apr 28 2013 12:22:01
    Библиотека кодирования : libebml v1.3.0 + libmatroska v1.4.0
    Attachment : Yes
    Видео
    Идентификатор : 1
    Формат : AVC
    Формат/Информация : Advanced Video Codec
    Профиль формата :High@L4.2
    Параметр CABAC формата : Да
    Параметр ReFrames формата : 4 кадра
    Идентификатор кодека : V_MPEG4/ISO/AVC
    Битрейт : 1402 Кбит/сек
    Ширина : 704 пикселя
    Высота : 528 пикселей
    Соотношение сторон : 4:3
    Режим частоты кадров : Переменный
    Частота кадров в оригинале : 25, 000 кадров/сек
    Цветовое пространство : YUV
    Субдискретизация насыщенности : 4:2:0
    Битовая глубина : 8 бит
    Тип развёртки : Прогрессивная
    Заголовок : Масада_Masada (Release for Topmost)
    Библиотека кодирования : x264 core 130 r2274bm c832fe9
    Настройки программы : cabac=1/ref=1/deblock=1:-1:-1/analyse=0x3:0x3/me=dia/subme=1/psy=1/psy_rd=1.00:0.15/mixed_ref=0/me_range=16/chroma_me=1/trellis=0/8x8dct=1/cqm=0/deadzone=21, 11/fast_pskip=1/chroma_qp_offset=0/threads=3/lookahead_threads=1/sliced_threads=0/nr=0/decimate=1/interlaced=0/bluray_compat=0/constrained_intra=0/bframes=3/b_pyramid=2/b_adapt=1/b_bias=0/direct=1/weightb=1/open_gop=0/weightp=1/keyint=250/keyint_min=25/scenecut=40/intra_refresh=0/rc=crf/mbtree=0/crf=22.5/qcomp=0.60/qpmin=0/qpmax=69/qpstep=4/ip_ratio=1.40/pb_ratio=1.30/aq=1:1.00
    Язык : English
    Default : Да
    Forced : Нет
    Аудио #1
    Идентификатор : 2
    Формат : AC-3
    Формат/Информация : Audio Coding 3
    Расширение режима : CM (complete main)
    Параметр Endianness формата : Big
    Идентификатор кодека : A_AC3
    Продолжительность : 2 ч. Божий одуванчик, сказал кто то из толпы, к чему не понятно. 11 м.
    Вид битрейта : Постоянный
    Битрейт : 192 Кбит/сек
    Каналы : 2 канала
    Расположение каналов : Front: L R
    Частота : 48, 0 КГц
    Битовая глубина : 16 бит
    Метод сжатия : С потерями
    Размер потока : 181 Мбайт (11%)
    Заголовок : AC3, 2 ch, 192kbps - Профессиональный (многоголосый закадровый)
    Язык : Russian
    Default : Да
    Forced : Нет
    Аудио #2
    Идентификатор : 3
    Формат : AC-3
    Формат/Информация : Audio Coding 3
    Расширение режима : CM (complete main)
    Параметр Endianness формата : Big
    Идентификатор кодека : A_AC3
    Продолжительность : 2 ч. 11 м.
    Вид битрейта : Постоянный
    Битрейт : 192 Кбит/сек
    Каналы : 2 канала
    Расположение каналов : Front: L R
    Частота : 48, 0 КГц
    Битовая глубина : 16 бит
    Метод сжатия : С потерями
    Размер потока : 181 Мбайт (11%)
    Заголовок : AC3, 2 ch, 192kbps - Оригинал
    Язык : English
    Default : Нет
    Forced : Нет


    Скриншоты для ознакомления




    Масада/Masada (1981) DVDRip [H.264] (сезон 1, серии 1-4 из 4) Наследие
    загрузка...
    Рейтинг →
     (голосов: 1, оценка 5/5, голосовать можно 1 раз )

    Другие торренты по теме:



      Комментарии (0):

      Информация

      Информация

        Посетители, находящиеся в группе Гости, не могут оставлять комментарии в данной новости.

        ↓ Меню




        ↓ Опрос

        Вы добавили сайт в закладки?
        Да
        Нет


        Top 10 за месяц (Фильмы)