.
Авторизация | Регистрация
Хочешь лучшие торренты? Добавь свой email!
Добавить

Торрент скачать бесплатно

» » От заката до рассвета / From Dusk Till Dawn: The Series (2015) WEB-DL [H.264 / 1080p-LQ] (сезон 2, серии 1 из 10) LostFilm, NewStudio, Alternative Production (обновляемая) скачать через торрент бесплатно




    От заката до рассвета / From Dusk Till Dawn: The Series (2015) WEB-DL [H.264 / 1080p-LQ] (сезон 2, серии 1 из 10) LostFilm, NewStudio, Alternative Production (обновляемая) скачать через торрент бесплатно

    Опубликовал: Админ | Дата: 31-08-2015, 04:00 | Просмотров: 1310

    Производство: США
    Жанр: Ужасы, Детектив, Криминал
    Режиссер: Роберт Родригес, Джо Менендес

    Актеры
    Д.Дж. Котрона, Зейн Холц, Роберт Патрик, Мэдисон Девенпорт, Брэндон Су Ху, Эйса Гонсалес, Джейк Бьюзи, Саманта Бекер, Сэнди Гарса и др.

    Описание

    Сет Гекко, грабитель банков, и его не совсем психически стабильный братец Ричард находятся в розыске. Разыскивают их не только ФБР, но и техасские законники — шериф МакГроу и рейнджер Гонсалес, которые утраивают усилия после того, как после очередного ограбления, устроенного братьями Гекко, в банке остается несколько трупов. Пытаясь удрать в Мексику, Гекко сталкиваются с бывшим священником Джейкобом Фуллером и его семьей, которых берут в заложники и в их же трейлере отправляются к мексиканской границе. Время пошло, сказал кто то из толпы, к чему не понятно. Заехав в небольшой стрип-клуб по дороге, они неудачно знакомятся с целой прорвой жаждущих крови вампиров и пытаются хотя бы дожить до рассвета, не говоря уже о том, чтобы истребить как можно больше чудовищ.

    Продолжительность: ~00: 46: 00 серия
    Качество видео: WEB-DL 1080p
    Перевод: Многоголосый закадровый, профессиональный |LostFilm, NewStudio
    Многоголосый закадровый, любительский |Alternative Production
    Вид субтитров: Вшитые отключаемые
    Язык субтитров: Английский
    Видео: AVC/H.264, 1912x1072 (16: 9), ~5000 kbps
    Аудио #1 rus: AC3, 6 ch, 384 kbps - многоголосый закадровый - LostFilm
    Аудио #2 rus: AC3, 6 ch, 384 kbps - многоголосый закадровый - NewStudio
    Аудио #3 rus: AC3, 6 ch, 384 kbps - многоголосый закадровый - Alternative Production
    Аудио #4 eng: AC3, 6 ch, 384 kbps - оригинал
    Код:

    Общее
    Уникальный идентификатор : 202738535862371874523017660602376925190 (0x9886058EC6F4BC6CBF13383FB5BE3006)
    Полное имя : G:FilmsFrom.Dusk.Till.Dawn.S02.WEB-DL.1080p.SborkaFrom.Dusk.Till.Dawn.The.Series.S02E01.1080p.WEB-DL.3xRus.Eng.DD5.1..mkv
    Формат : Matroska
    Версия формата : Version 4/Version 2
    Размер файла : 2, 11 Гбайт
    Продолжительность : 45 м.
    Общий поток : 6628 Кбит/сек
    Дата кодирования : UTC 2015-08-30 06:13:20
    Программа кодирования : mkvmerge v8.3.0 (\'Over the Horizon\') 64bit
    Библиотека кодирования : libebml v1.3.1 + libmatroska v1.4.2
    DURATION : 00:45:36.704000000
    NUMBER_OF_FRAMES : 85522
    NUMBER_OF_BYTES : 131361792
    _STATISTICS_WRITING_APP : mkvmerge v8.3.0 (\'Over the Horizon\') 64bit
    _STATISTICS_WRITING_DATE_UTC : 2015-08-30 06:13:20
    _STATISTICS_TAGS : BPS DURATION NUMBER_OF_FRAMES NUMBER_OF_BYTES
    Видео
    Идентификатор : 1
    Формат : AVC
    Формат/Информация : Advanced Video Codec
    Профиль формата :High@L4.0
    Параметр CABAC формата : Да
    Параметр ReFrames формата : 4 кадра
    Идентификатор кодека : V_MPEG4/ISO/AVC
    Продолжительность : 45 м.
    Битрейт : 4960 Кбит/сек
    Ширина : 1912 пикселей
    Высота : 1072 пикселя
    Соотношение сторон : 16:9
    Режим частоты кадров : Постоянный
    Частота кадров : 23, 976 кадра/сек
    Цветовое пространство : YUV
    Субдискретизация насыщенности : 4:2:0
    Битовая глубина : 8 бит
    Тип развёртки : Прогрессивная
    Бит/(Пиксели*Кадры) : 0.101
    Размер потока : 1, 58 Гбайт (75%)
    Язык : English
    Default : Да
    Forced : Нет
    Основные цвета : BT.709
    Характеристики трансфера : BT.709
    Коэффициенты матрицы : BT.709
    colour_range : Limited
    Аудио #1
    Идентификатор : 2
    Формат : AC-3
    Формат/Информация : Audio Coding 3
    Расширение режима : CM (complete main)
    Параметр Endianness формата : Big
    Идентификатор кодека : A_AC3
    Продолжительность : 45 м.
    Вид битрейта : Постоянный
    Битрейт : 384 Кбит/сек
    Каналы : 6 каналов
    Расположение каналов : Front: L C R, Side: L R, LFE
    Частота : 48, 0 КГц
    Битовая глубина : 16 бит
    Метод сжатия : С потерями
    Размер потока : 125 Мбайт (6%)
    Заголовок : LostFilm 5.1
    Язык : Russian
    Default : Да
    Forced : Нет
    Аудио #2
    Идентификатор : 3
    Формат : AC-3
    Формат/Информация : Audio Coding 3
    Расширение режима : CM (complete main)
    Параметр Endianness формата : Big
    Идентификатор кодека : A_AC3
    Продолжительность : 45 м.
    Вид битрейта : Постоянный
    Битрейт : 384 Кбит/сек
    Каналы : 6 каналов
    Расположение каналов : Front: L C R, Side: L R, LFE
    Частота : 48, 0 КГц
    Битовая глубина : 16 бит
    Метод сжатия : С потерями
    Размер потока : 125 Мбайт (6%)
    Заголовок : NewStudio 5.1
    Язык : Russian
    Default : Нет
    Forced : Нет
    Аудио #3
    Идентификатор : 4
    Формат : AC-3
    Формат/Информация : Audio Coding 3
    Расширение режима : CM (complete main)
    Параметр Endianness формата : Big
    Идентификатор кодека : A_AC3
    Продолжительность : 45 м.
    Вид битрейта : Постоянный
    Битрейт : 384 Кбит/сек
    Каналы : 6 каналов
    Расположение каналов : Front: L C R, Side: L R, LFE
    Частота : 48, 0 КГц
    Битовая глубина : 16 бит
    Метод сжатия : С потерями
    Размер потока : 125 Мбайт (6%)
    Заголовок : Alternative Production
    Язык : Russian
    Default : Нет
    Forced : Нет
    Аудио #4
    Идентификатор : 5
    Формат : AC-3
    Формат/Информация : Audio Coding 3
    Расширение режима : CM (complete main)
    Параметр Endianness формата : Big
    Идентификатор кодека : A_AC3
    Продолжительность : 45 м.
    Вид битрейта : Постоянный
    Битрейт : 384 Кбит/сек
    Каналы : 6 каналов
    Расположение каналов : Front: L C R, Side: L R, LFE
    Частота : 48, 0 КГц
    Битовая глубина : 16 бит
    Метод сжатия : С потерями
    Размер потока : 125 Мбайт (6%)
    Заголовок : original 5.1
    Язык : English
    Default : Нет
    Forced : Нет
    Текст
    Идентификатор : 6
    Формат : UTF-8
    Идентификатор кодека : S_TEXT/UTF8
    Идентификатор кодека/Информация : UTF-8 Plain Text
    Заголовок : CC
    Язык : English
    Default : Нет
    Forced : Нет


    Скриншоты для ознакомления




    От заката до рассвета/From Dusk Till Dawn: The Series (2015) WEB-DL [H.264/1080p-LQ] (сезон 2, серии 1 из 10) LostFilm, NewStudio, Alternative Production (обновляемая)
    загрузка...
    Рейтинг →
     (голосов: 1, оценка 3/5, голосовать можно 1 раз )

    Другие торренты по теме:

  • Александр Заморин | От заката до рассвета (2014) PCRec скачать через торрент бесплатно
  • Александр Шапиро - От рассвета до заката (2009) [FLAC|image +.cue]<Шансон> скачать через торрент бесплатно
  • От заката до рассвета / From Dusk Till Dawn (1996) BDRip [H.264 / 1080p] скачать через торрент бесплатно
  • От заката до рассвета / From Dusk Till Dawn: The Series (2015) WEB-DLRip (сезон 2, серии 1 из 10) NewStudio (обновляемая) скачать через торрент бесплатно
  • От заката до рассвета / From Dusk Till Dawn: The Series (2015) WEB-DL [H.264 / 720p-LQ] (сезон 2, серия 1 из 10) (NewStudio) (обновляемая) скачать через торрент бесплатно
  • От заката до рассвета / From Dusk Till Dawn: The Series (2015) WEB-DLRip (сезон 2, серии 1 из 10) LostFilm (обновляемая) скачать через торрент бесплатно
  • Ласковый май: от заката до рассвета (2016) SATRip
  • От заката до рассвета / From Dusk Till Dawn (2016) WEB-DLRip (сезон 3, серии 1 из 10) NewStudio (обновляемая)


    • Комментарии (0):

      Информация

      Информация

        Посетители, находящиеся в группе Гости, не могут оставлять комментарии в данной новости.

        ↓ Меню




        ↓ Опрос

        Вы добавили сайт в закладки?
        Да
        Нет


        Top 10 за месяц (Фильмы)