.
Авторизация | Регистрация
Хочешь лучшие торренты? Добавь свой email!
Добавить

Торрент скачать бесплатно

» » Континуум / Continuum (2015) WEB-DLRip (сезон 4, серии 1 из ) LostFilm (обновляемая) скачать через торрент бесплатно




    Континуум / Continuum (2015) WEB-DLRip (сезон 4, серии 1 из ) LostFilm (обновляемая) скачать через торрент бесплатно

    Опубликовал: Админ | Дата: 31-08-2015, 04:00 | Просмотров: 96

    Производство: Канада
    Жанр: фантастика, боевик, триллер
    Режиссер: Пэт Уильямс, Уильям Варинг, Дэвид Фрэйзи

    Актеры
    Рэйчел Николс, Виктор Уэбстер, Эрик Кнудсен, Стефен Лобо, Ричард Хэрмон, Брайан Маркинсон, Дженнифер Спенс, Джон Генри Рирдон, Роджер Р. Кросс, Лекса Дойг и др.

    Описание

    Когда в 2077 году группа террористов-фанатиков сбегает с казни, они переносятся в 2012 год, случайно захватив с собой стража Управления общественной безопасности Киру Кэмерон. Когда она понимает, что застряла в прошлом и не может вернуться к мужу и сыну, Кира направляет свою энергию на попытки устранить террористическую группу, пока они не повергли в хаос наше настоящее...

    Продолжительность: ~00: 44: 00 серия
    Качество видео: WEB-DLRip
    Перевод: Многоголосый закадровый, профессиональный -LostFilm
    Видео: XviD, 720x400 (16: 9), ~1500 kb/s
    Аудио Rus: MPEG Layer 3, 48, 0 kHz, 2 ch, 192 kb/s — многоголосый закадровый
    Общее
    Полное имя : D: Континуум (сезон любимого сериала 4) Continuum (2015) WEB-DLRip - LostFilmContinuum.S04E01.rus.LostFilm.TV.avi
    Формат : AVI
    Формат/Информация : Audio Video Interleave
    Размер файла : 544 Мбайт
    Продолжительность : 44 м.
    Режим общего битрейта : Переменный
    Общий поток : 1717 Кбит/сек
    Программа кодирования : Nandub v1.0rc2
    Библиотека кодирования : Nandub build 1853/release
    Видео
    Идентификатор : 0
    Формат : MPEG-4 Visual
    Профиль формата : Advanced Simple@L5
    Параметр BVOP формата : Нет
    Параметр QPel формата : Нет
    Параметр GMC формата : Без точки перехода
    Параметр матрицы формата : Default (H.263)
    Идентификатор кодека : XVID
    Идентификатор кодека/Подсказка : XviD
    Продолжительность : 44 м.
    Битрейт : 1516 Кбит/сек
    Ширина : 720 пикселей
    Высота : 400 пикселей
    Соотношение сторон : 16: 9
    Частота кадров : 23, 976 кадра/сек
    Цветовое пространство : YUV
    Субдискретизация насыщенности : 4: 2: 0
    Битовая глубина : 8 бит
    Тип развёртки : Прогрессивная
    Метод сжатия : С потерями
    Бит/(Пиксели*Кадры) : 0.220
    Размер потока : 481 Мбайт (88%)
    Библиотека кодирования : XviD 1.2.1 (UTC 2008-12-04)
    Аудио
    Идентификатор : 1
    Формат : MPEG Audio
    Версия формата : Version 1
    Профиль формата : Layer 3
    Режим : Joint stereo
    Расширение режима : MS Stereo
    Идентификатор кодека : 55
    Идентификатор кодека/Подсказка : MP3
    Продолжительность : 44 м.
    Вид битрейта : Переменный
    Битрейт : 192 Кбит/сек
    Каналы : 2 канала
    Частота : 48, 0 КГц
    Метод сжатия : С потерями
    Размер потока : 59, 7 Мбайт (11%)
    Выравнивание : Соединение по промежуткам
    Продолжительность промежутка : 24 мс. (0, 58 видеокадр)
    Время предзагрузки промежутка : 485 мс.
    Библиотека кодирования : LAME3.97b
    Настройки программы : -m j -V 4 -q 3 -lowpass 18.6 --abr 192


    Скриншоты для ознакомления




    Континуум/Continuum (2015) WEB-DLRip (сезон 4, серии 1 из ) LostFilm (обновляемая)
    загрузка...
    Рейтинг →
     (голосов: 1, оценка 3/5, голосовать можно 1 раз )

    Другие торренты по теме:

  • Континуум / Continuum (2015) WEB-DLRip (сезон 4, серии 1 из ) NewStudio (обновляемая) скачать через торрент бесплатно
  • Континуум / Continuum (2015) WEB-DL [H.264 / 720p-LQ] (сезон 4, серия 1 из 6) (NewStudio) (обновляемая) скачать через торрент бесплатно
  • Континуум / Continuum (2015) WEB-DL [H.264 / 1080p-LQ] (сезон 4, серии 1 из ) LostFilm (обновляемая) скачать через торрент бесплатно
  • Континуум / Continuum (2015) WEB-DLRip [H.264] (Сезон 4, серия 1 из ) LostFilm [MP4|1280x718] скачать через торрент бесплатно


    • Комментарии (0):

      Информация

      Информация

        Посетители, находящиеся в группе Гости, не могут оставлять комментарии в данной новости.

        ↓ Меню




        ↓ Опрос

        Вы добавили сайт в закладки?
        Да
        Нет


        Top 10 за месяц (Фильмы)