.
Авторизация | Регистрация
Хочешь лучшие торренты? Добавь свой email!
Добавить

Торрент скачать бесплатно

» » Крик / Scream (2015) WEB-DLRip [H.264 / 1080p-LQ] (сезон 1, серии 1-9 из 10) LostFilm (обновляемая) скачать через торрент бесплатно




    Крик / Scream (2015) WEB-DLRip [H.264 / 1080p-LQ] (сезон 1, серии 1-9 из 10) LostFilm (обновляемая) скачать через торрент бесплатно

    Опубликовал: Админ | Дата: 31-08-2015, 04:00 | Просмотров: 123

    Производство: США, DiGa Vision, Dimension Films, Dimension Television
    Жанр: детектив, криминал, ужасы
    Режиссер: Ли Джаньяк, Джулиус Рамсей, Джеми Трэвис

    Актеры
    Уилла Фицджералд, Бекс Тейлор-Клаус, Карлсон Янг, Джон Карна, Коннор Вейл, Бобби Кампо, Амадеус Серафини, Том Мэден, Трэйси Миддендорф, Майк Вон и др.

    Описание

    То, что начиналось как обычное видео на YouTube, вскоре оборачивается проблемами для подростков Лейквуда и служит катализатором для убийства, которое открывает окно в тяжелое прошлое города.

    Дата мировой премьеры: 30 июня 2015
    Продолжительность: ~ 00: 45: 00 серия
    Качество видео: WEB-DLRip
    Перевод: Многоголосый закадровый профессиональный - LostFilm
    Видео: AVC/H.264, 1920x1080 (16: 9), ~5200 kbps
    Аудио #1 Rus: AC3, 2.0 ch, 384 Kbps - многоголосый закадровый
    Аудио #2 Eng: AC3, 2.0 ch, 384 Kbps - оригинал
    Код:
    Общее
    Уникальный идентификатор : 198924350280767861530142845796181057569 (0x95A76FB0871E9A399B66533B972FA021)
    Полное имя : F:DOWNLOADSКрик (1 сезон любимого сериала) 2015 WEB-DLRip 1080Крик - 01 серия.mkv
    Формат : Matroska
    Версия формата : Version 2
    Размер файла : 1, 86 Гбайт
    Продолжительность : 44 м.
    Общий поток : 6012 Кбит/сек
    Дата кодирования : UTC 2015-08-30 15:39:20
    Программа кодирования : mkvmerge v7.8.0 (\'River Man\') 32bit built on Apr 3 2015 12:11:22
    Библиотека кодирования : libebml v1.3.1 + libmatroska v1.4.2
    Видео
    Идентификатор : 1
    Формат : AVC
    Формат/Информация : Advanced Video Codec
    Профиль формата : High@L4
    Параметр CABAC формата : Да
    Параметр ReFrames формата : 2 кадра
    Идентификатор кодека : V_MPEG4/ISO/AVC
    Продолжительность : 44 м.
    Битрейт : 5242 Кбит/сек
    Ширина : 1920 пикселей
    Высота : 1080 пикселей
    Соотношение сторон : 16:9
    Режим частоты кадров : Постоянный
    Частота кадров : 23, 976 кадра/сек
    Цветовое пространство : YUV
    Субдискретизация насыщенности : 4:2:0
    Битовая глубина : 8 бит
    Тип развёртки : Прогрессивная
    Бит/(Пиксели*Кадры) : 0.105
    Размер потока : 1, 58 Гбайт (85%)
    Библиотека кодирования : x264 core 112 r1834 a51816a
    Настройки программы : cabac=1/ref=1/deblock=1:0:0/analyse=0x3:0x133/me=umh/subme=7/psy=1/psy_rd=1.00:0.00/mixed_ref=0/me_range=16/chroma_me=1/trellis=1/8x8dct=1/cqm=0/deadzone=21, 11/fast_pskip=1/chroma_qp_offset=-2/threads=12/sliced_threads=0/nr=0/decimate=1/interlaced=0/constrained_intra=0/bframes=5/b_pyramid=0/b_adapt=1/b_bias=0/direct=3/weightb=1/open_gop=0/weightp=2/keyint=250/keyint_min=25/scenecut=40/intra_refresh=0/rc_lookahead=40/rc=2pass/mbtree=1/bitrate=5242/ratetol=1.0/qcomp=0.60/qpmin=0/qpmax=51/qpstep=4/cplxblur=20.0/qblur=0.5/ip_ratio=1.40/aq=1:1.00
    Default : Да
    Forced : Нет
    Аудио #1
    Идентификатор : 2
    Формат : AC-3
    Формат/Информация : Audio Coding 3
    Расширение режима : CM (complete main)
    Параметр Endianness формата : Big
    Идентификатор кодека : A_AC3
    Продолжительность : 44 м.
    Вид битрейта : Постоянный
    Битрейт : 384 Кбит/сек
    Каналы : 2 канала
    Расположение каналов : Front: L R
    Частота : 48, 0 КГц
    Метод сжатия : С потерями
    Размер потока : 121 Мбайт (6%)
    Default : Да
    Forced : Нет
    Аудио #2
    Идентификатор : 3
    Формат : AC-3
    Формат/Информация : Audio Coding 3
    Расширение режима : CM (complete main)
    Параметр Endianness формата : Big
    Идентификатор кодека : A_AC3
    Продолжительность : 44 м.
    Вид битрейта : Постоянный
    Битрейт : 384 Кбит/сек
    Каналы : 2 канала
    Расположение каналов : Front: L R
    Частота : 48, 0 КГц
    Метод сжатия : С потерями
    Размер потока : 121 Мбайт (6%)
    Default : Нет
    Forced : Нет


    Скриншоты для ознакомления




    Крик/Scream (2015) WEB-DLRip [H.264/1080p-LQ] (сезон 1, серии 1-9 из 10) LostFilm (обновляемая)
    загрузка...
    Рейтинг →
     (голосов: 1, оценка 4/5, голосовать можно 1 раз )

    Другие торренты по теме:

  • Крик / Scream (2015) WEB-DLRip (сезон 1, серии 1 из 10) LostFilm (обновляемая) скачать через торрент бесплатно
  • Крик / Scream (2015) WEB-DL [H.264 / 720p-LQ] (сезон 1, серия 1 из 10) (LostFilm) (обновляемая) скачать через торрент бесплатно
  • Крик / Scream (2015) WEB-DLRip [H.264] (Сезон 1, серия 1 из 10) LostFilm [MP4|960х544] (обновляемая) скачать через торрент бесплатно
  • Крик / Scream (1996-2011) BDRip [H.264 / 1080p] [Антология] скачать через торрент бесплатно
  • Крик / Scream (2015) WEB-DLRip [H.264] (сезон 1, серии 1-9 из 10) LostFilm (обновляемая) скачать через торрент бесплатно
  • Крик / Scream (1996) BDRip [H.264 / 720р-LQ] скачать через торрент бесплатно
  • Крик / Scream (2016) HDTV [H.264 / 720p-LQ] (сезон 2, серии 1 из 8) ColdFilm (обновляемая)
  • Крик / Scream (2016) WEB-DLRip (сезон 2, серии 1 из 10) OMSKBIRD (обновляемая)


    • Комментарии (0):

      Информация

      Информация

        Посетители, находящиеся в группе Гости, не могут оставлять комментарии в данной новости.

        ↓ Меню




        ↓ Опрос

        Вы добавили сайт в закладки?
        Да
        Нет


        Top 10 за месяц (Фильмы)