.
Авторизация | Регистрация
Хочешь лучшие торренты? Добавь свой email!
Добавить

Торрент скачать бесплатно

» » Нарки / Нарко / Narcos (2015) WEBRip (сезон 1, серии 1-4 из 10) NewStudio (обновляемая) скачать через торрент бесплатно




    Нарки / Нарко / Narcos (2015) WEBRip (сезон 1, серии 1-4 из 10) NewStudio (обновляемая) скачать через торрент бесплатно

    Опубликовал: Админ | Дата: 31-08-2015, 04:00 | Просмотров: 136

    Производство: США, Gaumont International Television
    Жанр: драма, криминал
    Режиссер: Жозе Падилья

    Актеры
    Вагнер Моура, Морис Комт, Джоанна Кристи, Бойд Холбрук, Педро Паскаль, Стефани Сигман, Роберто Урбина, Ана де ла Регера, Даниэль Кеннеди, Диего Катаньо и др.

    Описание

    Хроника криминальной жизни колумбийского наркобарона-миллиардера Пабло Эскобара — главы самого мощного в мире Медельинского кокаинового картеля.

    Дата мировой премьеры: 28 августа 2015
    Продолжительность: ~00: 57: 00 серия
    Качество видео: WEBRip
    Перевод: Многоголосый закадровый, профессиональный -NewStudio
    Автор перевода: Григорий Сенин, Ирина Гвозденко, Александра Цернант
    Внимание! В сериале присутствует ненормативная лексика.
    Видео: XviD, 720x400 (16: 9), ~1450 kb/s
    Аудио Rus: MPEG Layer 3, 48, 0 kHz, 2 ch, 128 kb/s — многоголосый закадровый
    Аудио Eng: MPEG Layer 3, 48, 0 kHz, 2 ch, 128 kb/s — оригинал
    Общее
    Полное имя : D: Нарки (сезон любимого сериала 1) Narcos (2015) WEBRip - NewStudioNarcos.S01E01.WEBRip.NewStudio.TV.avi
    Формат : AVI
    Формат/Информация : Audio Video Interleave
    Размер файла : 700 Мбайт
    Продолжительность : 57 м.
    Общий поток : 1713 Кбит/сек
    Программа кодирования : VirtualDubMod 1.5.10.2 (build 2540/release)
    Библиотека кодирования : VirtualDubMod build 2540/release
    Видео
    Идентификатор : 0
    Формат : MPEG-4 Visual
    Профиль формата : Advanced Simple@L5
    Параметр BVOP формата : 2
    Параметр QPel формата : Нет
    Параметр GMC формата : Без точки перехода
    Параметр матрицы формата : Default (MPEG)
    Идентификатор кодека : XVID
    Идентификатор кодека/Подсказка : XviD
    Продолжительность : 57 м.
    Битрейт : 1443 Кбит/сек
    Ширина : 720 пикселей
    Высота : 400 пикселей
    Соотношение сторон : 16: 9
    Частота кадров : 23, 976 кадра/сек
    Цветовое пространство : YUV
    Субдискретизация насыщенности : 4: 2: 0
    Битовая глубина : 8 бит
    Тип развёртки : Прогрессивная
    Метод сжатия : С потерями
    Бит/(Пиксели*Кадры) : 0.209
    Размер потока : 590 Мбайт (84%)
    Библиотека кодирования : XviD 73
    Аудио #1
    Идентификатор : 1
    Формат : MPEG Audio
    Версия формата : Version 1
    Профиль формата : Layer 3
    Режим : Joint stereo
    Идентификатор кодека : 55
    Идентификатор кодека/Подсказка : MP3
    Продолжительность : 57 м.
    Вид битрейта : Постоянный
    Битрейт : 128 Кбит/сек
    Каналы : 2 канала
    Частота : 48, 0 КГц
    Метод сжатия : С потерями
    Размер потока : 52, 3 Мбайт (7%)
    Выравнивание : Соединение по промежуткам
    Продолжительность промежутка : 42 мс. (1, 00 видеокадр)
    Время предзагрузки промежутка : 504 мс.
    Библиотека кодирования : LAME3.99r
    Настройки программы : -m j -V 4 -q 2 -lowpass 17 -b 128
    Аудио #2
    Идентификатор : 2
    Формат : MPEG Audio
    Версия формата : Version 1
    Профиль формата : Layer 3
    Режим : Joint stereo
    Идентификатор кодека : 55
    Идентификатор кодека/Подсказка : MP3
    Продолжительность : 57 м.
    Вид битрейта : Постоянный
    Битрейт : 128 Кбит/сек
    Каналы : 2 канала
    Частота : 48, 0 КГц
    Метод сжатия : С потерями
    Размер потока : 52, 3 Мбайт (7%)
    Выравнивание : Соединение по промежуткам
    Продолжительность промежутка : 42 мс. (1, 00 видеокадр)
    Время предзагрузки промежутка : 504 мс.
    Библиотека кодирования : LAME3.99r
    Настройки программы : -m j -V 4 -q 2 -lowpass 17 -b 128


    Скриншоты для ознакомления




    Нарки/Нарко/Narcos (2015) WEBRip (сезон 1, серии 1-4 из 10) NewStudio (обновляемая)
    загрузка...
    Рейтинг →
     (голосов: 1, оценка 5/5, голосовать можно 1 раз )

    Другие торренты по теме:

  • Нарки / Нарко / Narcos (2015) WEBRip [H.264 / 720p-LQ] (сезон 1, серии 1-2 из 10) NewStudio (обновляемая) скачать через торрент бесплатно
  • Нарки / Нарко / Narcos (2015) WEBRip (cезон 1, серии 1-2 из 10) (Jimmy J) (обновляемая) скачать через торрент бесплатно
  • Нарки / Нарко / Narcos (2015) WEBRip [H.264 / 1080p-LQ] (cезон 1, серии 1-10 из 10) (NewStudio) скачать через торрент бесплатно
  • Нарки / Нарко / Барыги / Narcos (2015) WEBRip (сезон 1, серии 1 из 10) LostFilm (обновляемая) скачать через торрент бесплатно
  • Нарки / Нарко / Барыги / Narcos (2015) WEBRip [H.264 / 1080p-LQ] (сезон 1, серии 1-2 из 10) LostFilm (обновляемая) скачать через торрент бесплатно
  • Нарки / Нарко / Барыги / Narcos (2015) WEB-DL [H.264 / 2160p] (сезон 1, серии 1-10 из 10) (LostFilm)
  • Нарко / Нарки / Барыги / Narcos (2016) WEBRip [H.264 / 1080p] (сезон 2, серии 1 из 10) LostFilm (обновляемая)
  • Нарко / Нарки / Барыги / Narcos (2016) WEBRip (сезон 2, серии 1 из 10) LostFilm (обновляемая)


    • Комментарии (0):

      Информация

      Информация

        Посетители, находящиеся в группе Гости, не могут оставлять комментарии в данной новости.

        ↓ Меню




        ↓ Опрос

        Вы добавили сайт в закладки?
        Да
        Нет


        Top 10 за месяц (Фильмы)