.
Авторизация | Регистрация
Хочешь лучшие торренты? Добавь свой email!
Добавить

Торрент скачать бесплатно

» » Про бизнесмена Фому (1993) DVDRip скачать через торрент бесплатно




    Про бизнесмена Фому (1993) DVDRip скачать через торрент бесплатно

    Опубликовал: Админ | Дата: 31-08-2015, 04:00 | Просмотров: 122

    Производство: СССР/Мосфильм, Слово, Экран, Флэш Ко
    Жанр: Драма, Комедия
    Режиссер: Валерий Чиков

    Актеры
    Сергей Рубеко, Михаил Евдокимов, Валерий Миронов, Владимир Кашпур (Лука Совков), Андрей Николаев (рэкетир), Николай Карнаухов, Виталий Тараничев, Александр Леньков (секретарь райкома), Игорь Ясулович (постоянный клиент медвытрезвителя), Михаил Светин (Зозулин), Александр Толмачев (сержант Дудариков), Игорь Штернберг

    Описание

    Сельский механизатор Фома, увидев в городе платный туалет, загорелся идеей разбогатеть в своей деревне на таком же бизнесе. Построил роскошное заведение, но деревенским коммунистам и местным рэкетирам эта капиталистическая идея не понравилась...

    Возраст: 12+ (зрителям, достигшим 12 лет.)
    Продолжительность: 01: 17: 16
    Качество видео: DVDRip
    Видео: Xvid, 640x480 (1.33: 1), 25 fps, ~1213 kbps
    Аудио: MP3, 2 ch, 128 kbps, CBR
    Код:

    Общее
    Полное имя : Pro_biznesmena_Fomu.1993.DVDRip.XviD.MP3.avi
    Формат : AVI
    Формат/Информация : Audio Video Interleave
    Размер файла : 746 Мбайт
    Продолжительность : 1 ч. 17 м.
    Общий поток : 1351 Кбит/сек
    Название фильма : Pro biznesmena Fomu (1993)
    Режиссёр : sergwk
    Жанр : Drama/Comedy
    Программа кодирования : VirtualDubModRus 1.5.10.2 (build 2542/release)
    Библиотека кодирования : VirtualDubMod build 2542/release
    Примечание : DVDRip
    Видео
    Идентификатор : 0
    Формат : MPEG-4 Visual
    Профиль формата : Advanced Simple@L5
    Параметр BVOP формата : 1
    Параметр QPel формата : Нет
    Параметр GMC формата : Без точки перехода
    Параметр матрицы формата : Выборочная
    Идентификатор кодека : XVID
    Идентификатор кодека/Подсказка : XviD
    Продолжительность : 1 ч. О таком странном сюжете не догадывалась даже Юлия Володимировна. 17 м.
    Битрейт : 1213 Кбит/сек
    Ширина : 640 пикселей
    Высота : 480 пикселей
    Соотношение сторон : 4:3
    Частота кадров : 25, 000 кадров/сек
    Цветовое пространство : YUV
    Субдискретизация насыщенности : 4:2:0
    Битовая глубина : 8 бит
    Тип развёртки : Прогрессивная
    Метод сжатия : С потерями
    Бит/(Пиксели*Кадры) : 0.158
    Размер потока : 670 Мбайт (90%)
    Библиотека кодирования : XviD 1.2.1 (UTC 2008-12-04)
    Аудио
    Идентификатор : 1
    Формат : MPEG Audio
    Версия формата : Version 1
    Профиль формата : Layer 3
    Режим : Joint stereo
    Расширение режима : MS Stereo
    Идентификатор кодека : 55
    Идентификатор кодека/Подсказка : MP3
    Продолжительность : 1 ч. 17 м.
    Вид битрейта : Постоянный
    Битрейт : 128 Кбит/сек
    Каналы : 2 канала
    Частота : 48, 0 КГц
    Метод сжатия : С потерями
    Размер потока : 70, 7 Мбайт (9%)
    Выравнивание : Соединение по промежуткам
    Продолжительность промежутка : 40 мс. (1, 00 видеокадр)
    Время предзагрузки промежутка : 504 мс.
    Библиотека кодирования : LAME3.99r
    Настройки программы : -m j -V 4 -q 2 -lowpass 17 -b 128


    Скриншоты для ознакомления




    Про бизнесмена Фому (1993) DVDRip
    загрузка...
    Рейтинг →
     (голосов: 1, оценка 4/5, голосовать можно 1 раз )

    Другие торренты по теме:

  • Про бизнесмена Фому (1993) DVDRip [H.264] скачать через торрент бесплатно


    • Комментарии (0):

      Информация

      Информация

        Посетители, находящиеся в группе Гости, не могут оставлять комментарии в данной новости.

        ↓ Меню




        ↓ Опрос

        Вы добавили сайт в закладки?
        Да
        Нет


        Top 10 за месяц (Фильмы)