.
Авторизация | Регистрация
Хочешь лучшие торренты? Добавь свой email!
Добавить

Торрент скачать бесплатно

» » Тетка Чарлея / Charleys Tante (1956) DVD9 скачать через торрент бесплатно




    Тетка Чарлея / Charleys Tante (1956) DVD9 скачать через торрент бесплатно

    Опубликовал: Админ | Дата: 30-08-2015, 04:00 | Просмотров: 80

    Производство: Германия (ФРГ), Imperial Filmproduktion
    Жанр: Мелодрама, комедия
    Режиссер: Ганс Квест

    Актеры
    Хайнц Рюманн, Херта Файлер, Клаус Бидерштедт, Вальтер Гиллер, Рут Штефан, Бум Крюгер, Ганс Ольден, Ина Петерс, Елиза Лоти, Ганс Лайбельт, Пауль Хербигер, Хельмут Рудольф, Хильда фон Штольц

    Описание

    Торговый атташе Отто Дернбург приезжает из Южной Америки на деловые переговоры в Германию. На приеме он знакомится с привлекательной миллионершей Карлоттой Рамирес. Позже он посещает своего младшего брата Ральфа, который живет со своим другом Чарли на чердаке. Друзья пригласили в гости двух очаровательных шведок Уллу и Бритту, но боятся их сурового дяди Нильса. Девушки не хотят оставаться наедине с молодыми людьми. Должна приехать тетушка Чарли, но ее нет. Самое интересное в это истории, что об этом Потап ничего не знал. Ради своего брата и чтобы спасти вечер, доктор Дернбург переодевается в тетушку Чарли. Ситуация становится все более сложной, когда на вечеринке появляются отец Чарли и дядя Нильс...

    Продолжительность: 01: 26: 43
    Качество видео: DVD9
    Перевод: Двухголосый закадровый (Студия Навь)
    Язык субтитров: Русские (отключаемые)
    Дополнительные материалы: Трейлер к фильму
    Видео: MPEG-2, PAL 4: 3 720x576@768x576 VBR, ~7011 Кбит/сек, 25, 00 кадр/сек
    Аудио#1: AC3, 2/0ch, 192Kbps (Русский)
    Аудио#2: AC3, 2/0ch, 192Kbps (Немецкий)
    Сэмпл: Ссылка
    Title:
    Size: 4.66 Gb ( 4 885 972 KBytes ) - DVD-9
    Enabled regions: 1, 2, 3, 4, 5, 6, 7, 8
    VTS_01 :
    Play Length: 01: 26: 43+00: 02: 36
    Video: PAL 4: 3 (720x576) VBR
    Audio:
    Russian (Dolby AC3, 2 ch)
    Deutsch (Dolby AC3, 2 ch)
    Subtitles:
    Russian
    Код:

    Общее
    Полное имя : F:[NNM-Club.ru]_Charleys.Tante.1956.DVD9_maroder1VIDEO_TSVTS_01_1.VOB
    Формат : MPEG-PS
    Размер файла : 1024 Мбайт
    Продолжительность : 18 м.
    Режим общего битрейта : Переменный
    Общий поток : 7545 Кбит/сек
    Видео
    Идентификатор : 224 (0xE0)
    Формат : MPEG Video
    Версия формата : Version 2
    Профиль формата : Main@Main
    Параметр BVOP формата : Да
    Параметр матрицы формата : Выборочная
    Параметр GOP формата : M=3, N=12
    Продолжительность : 18 м.
    Вид битрейта : Переменный
    Битрейт : 7011 Кбит/сек
    Максимальный битрейт : 8500 Кбит/сек
    Ширина : 720 пикселей
    Высота : 576 пикселей
    Соотношение сторон : 4:3
    Частота кадров : 25, 000 кадров/сек
    Стандарт вещания : PAL
    Цветовое пространство : YUV
    Субдискретизация насыщенности : 4:2:0
    Битовая глубина : 8 бит
    Тип развёртки : Чересстрочная
    Порядок развёртки : Верхнее поле первое
    Метод сжатия : С потерями
    Бит/(Пиксели*Кадры) : 0.676
    Размер потока : 952 Мбайт (93%)
    Аудио #1
    Идентификатор : 189 (0xBD)-128 (0x80)
    Формат : AC-3
    Формат/Информация : Audio Coding 3
    Расширение режима : CM (complete main)
    Параметр Endianness формата : Big
    Режим смешивания : DVD-Video
    Продолжительность : 18 м.
    Вид битрейта : Постоянный
    Битрейт : 192 Кбит/сек
    Каналы : 2 канала
    Расположение каналов : Front: L R
    Частота : 48, 0 КГц
    Битовая глубина : 16 бит
    Метод сжатия : С потерями
    Размер потока : 26, 1 Мбайт (3%)
    Аудио #2
    Идентификатор : 189 (0xBD)-129 (0x81)
    Формат : AC-3
    Формат/Информация : Audio Coding 3
    Расширение режима : CM (complete main)
    Параметр Endianness формата : Big
    Режим смешивания : DVD-Video
    Продолжительность : 18 м.
    Вид битрейта : Постоянный
    Битрейт : 192 Кбит/сек
    Каналы : 2 канала
    Расположение каналов : Front: L R
    Частота : 48, 0 КГц
    Битовая глубина : 16 бит
    Метод сжатия : С потерями
    Размер потока : 26, 1 Мбайт (3%)
    Текст
    Идентификатор : 189 (0xBD)-32 (0x20)
    Формат : RLE
    Формат/Информация : Run-length encoding
    Режим смешивания : DVD-Video
    Меню


    Скриншоты для ознакомления




    Тетка Чарлея/Charleys Tante (1956) DVD9
    загрузка...
    Рейтинг →
     (голосов: 1, оценка 5/5, голосовать можно 1 раз )

    Другие торренты по теме:



      Комментарии (0):

      Информация

      Информация

        Посетители, находящиеся в группе Гости, не могут оставлять комментарии в данной новости.

        ↓ Меню




        ↓ Опрос

        Вы добавили сайт в закладки?
        Да
        Нет


        Top 10 за месяц (Фильмы)