.
Авторизация | Регистрация
Хочешь лучшие торренты? Добавь свой email!
Добавить

Торрент скачать бесплатно

» » СашаТаня (2015) WEB-DLRip (сезон 4, серии 1-4 из ) (обновляемая) скачать через торрент бесплатно




    СашаТаня (2015) WEB-DLRip (сезон 4, серии 1-4 из ) (обновляемая) скачать через торрент бесплатно

    Опубликовал: Админ | Дата: 28-08-2015, 04:00 | Просмотров: 166

    Производство: Россия, Comedy Club Production
    Жанр: комедия, ситком
    Режиссер: Михаил Старчак

    Актеры
    Андрей Гайдулян, Валентина Рубцова, Алексей Климушкин, Елена Бирюкова, Татьяна Орлова, Андрей Лебедев, Ксения Хаирова, Олег Новиков, Сергей Рудзевич, Сергей Мурзин, Андрей Свиридов, Павел Кассинский, Виталий Гогунский, Арарат Кещян, Ёлка, Алексей Гаврилов, Лариса Баранова

    Описание

    Сериал про молодую семью Сергеевых. После окончания института Саша и Таня вместе со своим маленьким сыном Алёшкой решили пожить самостоятельно и сняли квартиру в Южном Бутово. Райончик конечно не из лучших, но зато и цены на жилье тут доступные, ведь Саша не собирается пользоваться миллиардами своего папы. Но Сильвестр Андреевич не собирается так просто отставать от молодых и тем более от своего внука. Поэтому он поселился по соседству, только в просторной и роскошной квартире.

    Дата российской премьеры: 24.08.2015
    Продолжительность: ~ 00: 22: 00 серия
    Качество видео: WEB-DLRip
    Видео: XVID, 720x400 (16: 9), ~1800 Kbps
    Аудио: AC3, 2 ch, 192 Kbps
    Код:
    Общее
    Полное имя : F:DOWNLOADSСашаТаня (4 сезон любимого сериала) 2015 WEB-DLRipСашаТаня 4 - 01 серия.avi
    Формат : AVI
    Формат/Информация : Audio Video Interleave
    Размер файла : 319 Мбайт
    Продолжительность : 22 м.
    Общий поток : 2004 Кбит/сек
    Программа кодирования : VirtualDubMod 1.5.10.3 |www.virtualdub-fr.org|| (build 2550/release)
    Библиотека кодирования : VirtualDubMod build 2550/release
    Видео
    Идентификатор : 0
    Формат : MPEG-4 Visual
    Профиль формата : Advanced Simple@L5
    Параметр BVOP формата : 1
    Параметр QPel формата : Нет
    Параметр GMC формата : Без точки перехода
    Параметр матрицы формата : Default (MPEG)
    Идентификатор кодека : XVID
    Идентификатор кодека/Подсказка : XviD
    Продолжительность : 22 м.
    Битрейт : 1802 Кбит/сек
    Ширина : 720 пикселей
    Высота : 400 пикселей
    Соотношение сторон : 16:9
    Частота кадров : 25, 000 кадров/сек
    Цветовое пространство : YUV
    Субдискретизация насыщенности : 4:2:0
    Битовая глубина : 8 бит
    Тип развёртки : Прогрессивная
    Метод сжатия : С потерями
    Бит/(Пиксели*Кадры) : 0.250
    Размер потока : 287 Мбайт (90%)
    Библиотека кодирования : XviD 73
    Аудио
    Идентификатор : 1
    Формат : AC-3
    Формат/Информация : Audio Coding 3
    Расширение режима : CM (complete main)
    Параметр Endianness формата : Big
    Идентификатор кодека : 2000
    Продолжительность : 22 м.
    Вид битрейта : Постоянный
    Битрейт : 192 Кбит/сек
    Каналы : 2 канала
    Расположение каналов : Front: L R
    Частота : 48, 0 КГц
    Метод сжатия : С потерями
    Размер потока : 30, 6 Мбайт (10%)
    Выравнивание : Разделение по промежуткам
    Продолжительность промежутка : 40 мс. (1, 00 видеокадр)
    Время предзагрузки промежутка : 500 мс.


    Скриншоты для ознакомления




    СашаТаня (2015) WEB-DLRip (сезон 4, серии 1-4 из ) (обновляемая)
    загрузка...
    Рейтинг →
     (голосов: 1, оценка 5/5, голосовать можно 1 раз )

    Другие торренты по теме:

  • СашаТаня. Новогодняя серия (2016.12.28) WEB-DLRip
  • СашаТаня (2015) WEB-DLRip [H.264 / 720p-LQ] (сезон 2, серии 1- из 20) (обновляемая) скачать через торрент бесплатно
  • СашаТаня (2015) WEB-DLRip (сезон 2, серии 1- из 20) (обновляемая) скачать через торрент бесплатно
  • СашаТаня (2015) WEB-DLRip (сезон 3, серии 1-4 из 16) (обновляемая) скачать через торрент бесплатно
  • СашаТаня (2015) WEB-DLRip [H.264] (сезон 3, серии 1-4 из 16) (обновляемая) скачать через торрент бесплатно
  • СашаТаня (2015) WEB-DLRip [H.264 / 720p-LQ] (сезон 3, серии 1-4 из 16) (обновляемая) скачать через торрент бесплатно
  • СашаТаня (2015) WEB-DLRip [H.264] (сезон 4, серии 1-2 из ) (обновляемая) скачать через торрент бесплатно
  • СашаТаня (2015) WEB-DLRip [H.264 / 720p-LQ] (сезон 4, серии 1-4 из ) (обновляемая) скачать через торрент бесплатно


    • Комментарии (0):

      Информация

      Информация

        Посетители, находящиеся в группе Гости, не могут оставлять комментарии в данной новости.

        ↓ Меню




        ↓ Опрос

        Вы добавили сайт в закладки?
        Да
        Нет


        Top 10 за месяц (Фильмы)