.
Авторизация | Регистрация
Хочешь лучшие торренты? Добавь свой email!
Добавить

Торрент скачать бесплатно

» » СашаТаня (2015) WEB-DLRip [H.264] (сезон 4, серии 1-2 из ) (обновляемая) скачать через торрент бесплатно




    СашаТаня (2015) WEB-DLRip [H.264] (сезон 4, серии 1-2 из ) (обновляемая) скачать через торрент бесплатно

    Опубликовал: Админ | Дата: 28-08-2015, 04:00 | Просмотров: 98

    Производство: Россия, Comedy Club Production
    Жанр: комедия, ситком
    Режиссер: Михаил Старчак

    Актеры
    Андрей Гайдулян, Валентина Рубцова, Алексей Климушкин, Елена Бирюкова, Татьяна Орлова, Андрей Лебедев, Ксения Хаирова, Олег Новиков, Сергей Рудзевич, Сергей Мурзин, Андрей Свиридов, Павел Кассинский, Виталий Гогунский, Арарат Кещян, Ёлка, Алексей Гаврилов, Лариса Баранова

    Описание

    Сериал про молодую семью Сергеевых. После окончания института Саша и Таня вместе со своим маленьким сыном Алёшкой решили пожить самостоятельно и сняли квартиру в Южном Бутово. Райончик конечно не из лучших, но зато и цены на жилье тут доступные, ведь Саша не собирается пользоваться миллиардами своего папы. Но Сильвестр Андреевич не собирается так просто отставать от молодых и тем более от своего внука. Взрывоопасный вопрос, сказал кто то из толпы, к чему не понятно. Поэтому он поселился по соседству, только в просторной и роскошной квартире.

    Дата российской премьеры: 24.08.2015
    Продолжительность: ~ 00: 22: 00 серия
    Качество видео: WEB-DLRip
    Видео: AVC/H.264, 1024x576 (16: 9), ~2400 Kbps
    Аудио: AC3, 2 ch, 192 Kbps
    Код:
    Общее
    Уникальный идентификатор : 184721346803478153799357234679032924551 (0x8AF8098DA60951E5A2F2690895F14987)
    Полное имя : F:DOWNLOADSСашаТаня (4 сезон любимого сериала) 2015 WEB-DLRip [H.264]СашаТаня 4 - 01 серия.mkv
    Формат : Matroska
    Версия формата : Version 2
    Размер файла : 413 Мбайт
    Продолжительность : 22 м.
    Общий поток : 2594 Кбит/сек
    Дата кодирования : UTC 2015-08-25 16:00:06
    Программа кодирования : mkvmerge v7.8.0 (\'River Man\') 32bit built on Apr 3 2015 12:11:22
    Библиотека кодирования : libebml v1.3.1 + libmatroska v1.4.2
    Видео
    Идентификатор : 1
    Формат : AVC
    Формат/Информация : Advanced Video Codec
    Профиль формата :High@L4.1
    Параметр CABAC формата : Да
    Параметр ReFrames формата : 5 кадров
    Идентификатор кодека : V_MPEG4/ISO/AVC
    Продолжительность : 22 м.
    Битрейт : 2400 Кбит/сек
    Ширина : 1024 пикселя
    Высота : 576 пикселей
    Соотношение сторон : 16:9
    Режим частоты кадров : Постоянный
    Частота кадров : 25, 000 кадров/сек
    Цветовое пространство : YUV
    Субдискретизация насыщенности : 4:2:0
    Битовая глубина : 8 бит
    Тип развёртки : Прогрессивная
    Бит/(Пиксели*Кадры) : 0.163
    Размер потока : 374 Мбайт (91%)
    Библиотека кодирования : x264 core 146 r2538 121396c
    Настройки программы : cabac=1/ref=5/deblock=1:-1:-1/analyse=0x3:0x133/me=umh/subme=7/psy=1/psy_rd=1.00:0.00/mixed_ref=1/me_range=16/chroma_me=1/trellis=2/8x8dct=1/cqm=0/deadzone=21, 11/fast_pskip=0/chroma_qp_offset=-2/threads=6/lookahead_threads=1/sliced_threads=0/nr=0/decimate=1/interlaced=0/bluray_compat=0/constrained_intra=0/bframes=3/b_pyramid=2/b_adapt=2/b_bias=0/direct=3/weightb=1/open_gop=0/weightp=2/keyint=250/keyint_min=25/scenecut=40/intra_refresh=0/rc_lookahead=50/rc=2pass/mbtree=1/bitrate=2400/ratetol=1.0/qcomp=0.60/qpmin=0/qpmax=69/qpstep=4/cplxblur=20.0/qblur=0.5/ip_ratio=1.40/aq=1:1.00
    Default : Да
    Forced : Нет
    Аудио
    Идентификатор : 2
    Формат : AC-3
    Формат/Информация : Audio Coding 3
    Расширение режима : CM (complete main)
    Параметр Endianness формата : Big
    Идентификатор кодека : A_AC3
    Продолжительность : 22 м.
    Вид битрейта : Постоянный
    Битрейт : 192 Кбит/сек
    Каналы : 2 канала
    Расположение каналов : Front: L R
    Частота : 48, 0 КГц
    Метод сжатия : С потерями
    Размер потока : 30, 6 Мбайт (7%)
    Default : Да
    Forced : Нет


    Скриншоты для ознакомления




    СашаТаня (2015) WEB-DLRip [H.264] (сезон 4, серии 1-2 из ) (обновляемая)
    загрузка...
    Рейтинг →
     (голосов: 1, оценка 4/5, голосовать можно 1 раз )

    Другие торренты по теме:

  • СашаТаня. Новогодняя серия (2016.12.28) WEB-DLRip
  • СашаТаня (2015) WEB-DLRip [H.264 / 720p-LQ] (сезон 2, серии 1- из 20) (обновляемая) скачать через торрент бесплатно
  • СашаТаня (2015) WEB-DLRip (сезон 2, серии 1- из 20) (обновляемая) скачать через торрент бесплатно
  • СашаТаня (2015) WEB-DLRip (сезон 3, серии 1-4 из 16) (обновляемая) скачать через торрент бесплатно
  • СашаТаня (2015) WEB-DLRip [H.264] (сезон 3, серии 1-4 из 16) (обновляемая) скачать через торрент бесплатно
  • СашаТаня (2015) WEB-DLRip [H.264 / 720p-LQ] (сезон 3, серии 1-4 из 16) (обновляемая) скачать через торрент бесплатно
  • СашаТаня (2015) WEB-DLRip (сезон 4, серии 1-4 из ) (обновляемая) скачать через торрент бесплатно
  • СашаТаня (2015) WEB-DLRip [H.264 / 720p-LQ] (сезон 4, серии 1-4 из ) (обновляемая) скачать через торрент бесплатно


    • Комментарии (0):

      Информация

      Информация

        Посетители, находящиеся в группе Гости, не могут оставлять комментарии в данной новости.

        ↓ Меню




        ↓ Опрос

        Вы добавили сайт в закладки?
        Да
        Нет


        Top 10 за месяц (Фильмы)