.
Авторизация | Регистрация
Хочешь лучшие торренты? Добавь свой email!
Добавить

Торрент скачать бесплатно

» » Вице / Veep (2015) WEB-DLRip (сезон 4, серия 1-10 из 10) Новамедиа скачать через торрент бесплатно




    Вице / Veep (2015) WEB-DLRip (сезон 4, серия 1-10 из 10) Новамедиа скачать через торрент бесплатно

    Опубликовал: Админ | Дата: 27-08-2015, 04:00 | Просмотров: 348

    Производство: США, HBO
    Жанр: комедия
    Режиссер: Армандо Ианнуччи, Бекки Мартин, Кристофер Моррис

    Актеры
    Джулия Луис-Дрейфус, Анна Кламски, Тони Хейл, Рейд Скотт, Тимоти С. Саймонс, Мэтт Уолш, Суфе Брэдшоу, Гэри Коул, Кевин Данн, Дэн Баккедаль, Рэндолл Парк, Нельсон Франклин, Джессика Ст. Клер и др.

    Описание

    Главная героиня сериала – бывший сенатор Селина Майер (Джулия Луис-Дрейфус), которая стала вице-президентом. Как оказалось, новая должность – совсем не такая, какой ее представляла Майер, хотя многие ее предупреждали об этом.

    Продолжительность: ~00: 28: 00 серия
    Качество видео: WEB-DLRip
    Перевод: Многоголосый закадровый, профессиональный -Новамедиа (по заказу Amedia)
    Видео: XviD, 720x400 (16: 9), ~1500 Kbps
    Аудио Rus: MP3, 48.0 KHz, 2 ch, 128 Kbps, CBR - многоголосый закадровый
    Аудио Eng: MP3, 48.0 KHz, 2 ch, 128 Kbps, CBR - оригинал
    General
    Complete name : F: СериалраздачаVeep.S04.WEB-DLRipVeep.S04E01.WEB-DLRip.Generalfilm.avi
    Format : AVI
    Format/Info : Audio Video Interleave
    File size : 348 MiB
    Duration : 27mn 58s
    Overall bit rate : 1 738 Kbps
    Writing application : VirtualDubMod 1.5.10.2 (build 2540/release)
    Writing library : VirtualDubMod build 2540/release
    Video
    ID : 0
    Format : MPEG-4 Visual
    Format profile : Advanced Simple@L5
    Format settings, BVOP : Yes
    Format settings, QPel : No
    Format settings, GMC : No warppoints
    Format settings, Matrix : Default (MPEG)
    Codec ID : XVID
    Codec ID/Hint : XviD
    Duration : 27mn 58s
    Bit rate : 1 468 Kbps
    Width : 720 pixels
    Height : 400 pixels
    Display aspect ratio : 16: 9
    Frame rate : 23.976 fps
    Color space : YUV
    Chroma subsampling : 4: 2: 0
    Bit depth : 8 bits
    Scan type : Progressive
    Bits/(Pixel*Frame) : 0.213
    Stream size : 294 MiB (84%)
    Writing library : XviD 73
    Audio #1
    ID : 1
    Format : MPEG Audio
    Format version : Version 1
    Format profile : Layer 3
    Mode : Joint stereo
    Mode extension : MS Stereo
    Codec ID : 55
    Codec ID/Hint : MP3
    Duration : 27mn 58s
    Bit rate mode : Constant
    Bit rate : 128 Kbps
    Channel(s) : 2 channels
    Sampling rate : 48.0 KHz
    Stream size : 25.6 MiB (7%)
    Alignment : Aligned on interleaves
    Interleave, duration : 42 ms (1.00 video frame)
    Interleave, preload duration : 504 ms
    Audio #2
    ID : 2
    Format : MPEG Audio
    Format version : Version 1
    Format profile : Layer 3
    Codec ID : 55
    Codec ID/Hint : MP3
    Duration : 27mn 58s
    Bit rate mode : Constant
    Bit rate : 128 Kbps
    Channel(s) : 2 channels
    Sampling rate : 48.0 KHz
    Stream size : 25.6 MiB (7%)
    Alignment : Aligned on interleaves
    Interleave, duration : 42 ms (1.00 video frame)
    Interleave, preload duration : 504 ms
    Writing library : LAME3.99r
    Encoding settings : -m s -V 4 -q 2 -lowpass 17 -b 128


    Скриншоты для ознакомления




    Вице/Veep (2015) WEB-DLRip (сезон 4, серия 1-10 из 10) Новамедиа
    загрузка...
    Рейтинг →
     (голосов: 1, оценка 3/5, голосовать можно 1 раз )

    Другие торренты по теме:

  • Вице-президент / Вице / Veep (2016) HDTVRip (сезон 5, серии 1 из 10) Novamedia (обновляемая)


    • Комментарии (0):

      Информация

      Информация

        Посетители, находящиеся в группе Гости, не могут оставлять комментарии в данной новости.

        ↓ Меню




        ↓ Опрос

        Вы добавили сайт в закладки?
        Да
        Нет


        Top 10 за месяц (Фильмы)