.
Авторизация | Регистрация
Хочешь лучшие торренты? Добавь свой email!
Добавить

Торрент скачать бесплатно

» » Бойтесь ходячих мертвецов / Fear the Walking Dead (2015) WEB-DL [H.264 / 720p-LQ] (сезон 1, серия 1 из 6) (NewStudio) (обновляемая) скачать через торрент бесплатно




    Бойтесь ходячих мертвецов / Fear the Walking Dead (2015) WEB-DL [H.264 / 720p-LQ] (сезон 1, серия 1 из 6) (NewStudio) (обновляемая) скачать через торрент бесплатно

    Опубликовал: Админ | Дата: 26-08-2015, 04:00 | Просмотров: 98

    Производство: США
    Жанр: ужасы, драма
    Режиссер: Адам Дэвидсон, Кари Скогланд, Стефан Шварц

    Актеры
    Клифф Кёртис, Ким Диккенс, Алисия Дебнем-Кери, Фрэнк Диллэйн, Рубен Бладес, Мерседес Масон, Колман Доминго, Лоренцо Джеймс Хенри, Элизабет Родригес, Тони Френч и др.

    Описание

    Действия сериала происходят параллельно с событиями зомби-апокалипсиса, показанными в сериале Ходячие мертвецы, но в совершенно другом месте — Лос-Анджелесе. Акцент будет сделан на семейные отношения, в частности, проблемы отцов и детей. История вращается вокруг Шона — разведённого школьного учителя и Нэнси руководительницы женского совета. А так же детей Нэнси: Ника, который борется с наркотической зависимостью и амбициозной дочери Эшли.

    Релиз от: NewStudio
    Продолжительность: ~01: 00: 00 серия
    Качество видео: WEB-DL 720p
    Перевод: Профессиональный многоголосый закадровый -NewStudio
    Автор перевода: Алексей Матвеев
    Формат: MKV
    Видео: AVC/H.264, 1280x720 (16: 9), 23.976 fps, ~3907 Kbps, ~0.177 bit/pixel
    Аудио Rus: AC3, 384 kbps, 6 ch, 48 kHz
    Аудио Eng: AC3, 384 kbps, 6 ch, 48 kHz
    Код:
    Общее
    Fear the Walking Dead - Бойтесь ходячих мертвецов. Сезон 1. NewStudio. 720pFear.the.Walking.Dead.s01e01.WEBDL.720p.NewStudio.TV.mkv
    Формат : Matroska
    Версия формата : Version 4/Version 2
    Размер файла : 2, 15 Гбайт
    Продолжительность : 1 ч. 4 м.
    Общий поток : 4770 Кбит/сек
    Дата кодирования : UTC 2015-08-24 20:58:32
    Программа кодирования : mkvmerge v8.2.0 (\'World of Adventure\') 64bit
    Библиотека кодирования : libebml v1.3.1 + libmatroska v1.4.2
    Attachements : small_cover.jpg/cover.jpg/cover_land.jpg/small_cover_land.jpg
    DURATION : 01:04:30.400000000
    NUMBER_OF_FRAMES : 120950
    NUMBER_OF_BYTES : 185779200
    _STATISTICS_WRITING_APP : mkvmerge v8.2.0 (\'World of Adventure\') 64bit
    _STATISTICS_WRITING_DATE_UTC : 2015-08-24 20:58:32
    _STATISTICS_TAGS : BPS DURATION NUMBER_OF_FRAMES NUMBER_OF_BYTES
    Видео
    Идентификатор : 1
    Формат : AVC
    Формат/Информация : Advanced Video Codec
    Профиль формата :High@L3.1
    Параметр CABAC формата : Нет
    Параметр ReFrames формата : 2 кадра
    Идентификатор кодека : V_MPEG4/ISO/AVC
    Продолжительность : 1 ч. 4 м.
    Битрейт : 3907 Кбит/сек
    Ширина : 1280 пикселей
    Высота : 720 пикселей
    Соотношение сторон : 16:9
    Режим частоты кадров : Постоянный
    Частота кадров : 23, 976 кадра/сек
    Цветовое пространство : YUV
    Субдискретизация насыщенности : 4:2:0
    Битовая глубина : 8 бит
    Тип развёртки : Прогрессивная
    Бит/(Пиксели*Кадры) : 0.177
    Размер потока : 1, 76 Гбайт (82%)
    Язык : English
    Default : Да
    Forced : Нет
    Цветовой диапазон : Limited
    Основные цвета : BT.709
    Характеристики трансфера : BT.709
    Коэффициенты матрицы : BT.709
    Аудио #1
    Идентификатор : 2
    Формат : AC-3
    Формат/Информация : Audio Coding 3
    Расширение режима : CM (complete main)
    Параметр Endianness формата : Big
    Идентификатор кодека : A_AC3
    Продолжительность : 1 ч. 4 м.
    Вид битрейта : Постоянный
    Битрейт : 384 Кбит/сек
    Каналы : 6 каналов
    Расположение каналов : Front: L C R, Side: L R, LFE
    Частота : 48, 0 КГц
    Метод сжатия : С потерями
    Размер потока : 177 Мбайт (8%)
    Язык : Russian
    Default : Да
    Forced : Да
    Аудио #2
    Идентификатор : 3
    Формат : AC-3
    Формат/Информация : Audio Coding 3
    Расширение режима : CM (complete main)
    Параметр Endianness формата : Big
    Идентификатор кодека : A_AC3
    Продолжительность : 1 ч. 4 м.
    Вид битрейта : Постоянный
    Битрейт : 384 Кбит/сек
    Каналы : 6 каналов
    Расположение каналов : Front: L C R, Side: L R, LFE
    Частота : 48, 0 КГц
    Метод сжатия : С потерями
    Размер потока : 177 Мбайт (8%)
    Язык : English
    Default : Нет
    Forced : Нет


    Скриншоты для ознакомления




    Бойтесь ходячих мертвецов/Fear the Walking Dead (2015) WEB-DL [H.264/720p-LQ] (сезон 1, серия 1 из 6) (NewStudio) (обновляемая)
    загрузка...
    Рейтинг →
     (голосов: 1, оценка 3/5, голосовать можно 1 раз )

    Другие торренты по теме:

  • Бойтесь ходячих мертвецов / Fear the Walking Dead (2015) WEB-DLRip (сезон 1, серии 1 из 6()) NewStudio (обновляемая) скачать через торрент бесплатно
  • Бойтесь ходячих мертвецов / Fear the Walking Dead (2015) WEB-DL [H.264 / 1080p-LQ] (сезон 1, серия 1 из 6) (AMC) (обновляемая) скачать через торрент бесплатно
  • Бойтесь ходячих мертвецов / Fear the Walking Dead (2015) HDTVRip [H.264 / 720p-LQ] (сезон 1, серии 1 из 6) AMC (обновляемая) скачать через торрент бесплатно
  • Бойтесь ходячих мертвецов / Fear the Walking Dead (2015) HDTVRip (сезон 1, серии 1 из 6()) AMC (обновляемая) скачать через торрент бесплатно
  • Бойтесь ходячих мертвецов / Fear the Walking Dead (2015) WEB-DLRip (сезон 1, серии 1 из 6()) LostFilm (обновляемая) скачать через торрент бесплатно
  • Бойтесь ходячих мертвецов / Fear the Walking Dead (2015) WEB-DL [H.264 / 1080p-LQ] (сезон 1, серия 1 из 6) (NewStudio) (обновляемая) скачать через торрент бесплатно
  • Бойтесь ходячих мертвецов / Fear the Walking Dead (2015) WEB-DLRip (сезон 1, серии 1 из 6()) BaibaKo (обновляемая) скачать через торрент бесплатно
  • Бойтесь ходячих мертвецов / Fear the Walking Dead (2015) WEB-DLRip [H.264] (сезон 1, серии 1 из 6) AMC, LostFilm (обновляемая) скачать через торрент бесплатно


    • Комментарии (0):

      Информация

      Информация

        Посетители, находящиеся в группе Гости, не могут оставлять комментарии в данной новости.

        ↓ Меню




        ↓ Опрос

        Вы добавили сайт в закладки?
        Да
        Нет


        Top 10 за месяц (Фильмы)