.
Авторизация | Регистрация
Хочешь лучшие торренты? Добавь свой email!
Добавить

Торрент скачать бесплатно

» » Киллджойс / Килджой / Кайфоломы / Killjoys (2015) WEB-DL [H.264 / 1080p-LQ] (сезон 1, серия 1-10 из 10) (BaibaKo, LostFilm) скачать через торрент бесплатно




    Киллджойс / Килджой / Кайфоломы / Killjoys (2015) WEB-DL [H.264 / 1080p-LQ] (сезон 1, серия 1-10 из 10) (BaibaKo, LostFilm) скачать через торрент бесплатно

    Опубликовал: Админ | Дата: 26-08-2015, 04:00 | Просмотров: 105

    Производство: Канада
    Жанр: фантастика
    Режиссер: Крис Грисмер, Паоло Барзмен, Энди Микита

    Актеры
    Ханна Джон-Кэймен, Люк МакФарлейн, Аарон Эшмор, Том Эллисон, Тамсен МакДонаф, Роб Стюарт, Сара Пауэр, Нора МакЛеллан, Морган Келли и др.

    Описание

    Киллджойс — научно-фантастический сериал телеканала SyFy, повествующий о том, как трио профессиональных охотников за головами бороздит просторы Вселенной с целью поимки и свершения правосудия над самыми опасными преступниками. Шоу изобилует зрелищными сценами погонь и перестрелок, специфическим юмором космических головорезов, сложнейшими заданиями и, конечно, конфликтами, завязанными на преданности своему делу, дружеских спорах и любовных переживаниях. Киллджойс станет настоящей находкой для всех поклонников легкойфантастики и увлекательных приключений на фоне захватывающих дух пейзажей бескрайнего космоса.

    Дата мировой премьеры: 19 июня 2015
    Продолжительность: ~ 00: 43: 00 серия
    Качество видео: WEB-DL 1080p
    Перевод: Многоголосый закадровый, профессиональный |BaibaKo, LostFilm
    Вид субтитров: вшитые отключаемые
    Язык субтитров: английский
    Видео: AVC/H.264, 1920x1080 (16: 9), ~ 5077 kbps
    Аудио#1 Rus: AC3, 6 ch, 384 kbps - многоголосый закадровый (BaibaKo)
    Аудио#2 Rus: AC3, 6 ch, 384 kbps - многоголосый закадровый (LostFilm)
    Аудио#3 Eng: AC3, 6 ch, 384 kbps - оригинал
    Код:

    Общее
    Уникальный идентификатор : 205033239377834820824405325809330177660 (0x9A3FF72D0E50F64398566360DFCC467C)
    Полное имя : C:TorrentКиллджойсKilljoys.S01.1080p.WEB-DL.LostFilm+BaibaKo.DD5.1Killjoys.s01e01.1080p.WEB-DL.DD5.1.H.264.mkv
    Формат : Matroska
    Версия формата : Version 4/Version 2
    Размер файла : 1, 89 Гбайт
    Продолжительность : 42 м.
    Общий поток : 6356 Кбит/сек
    Дата кодирования : UTC 2015-08-25 14:16:08
    Программа кодирования : mkvmerge v8.2.0 (\'World of Adventure\') 64bit
    Библиотека кодирования : libebml v1.3.1 + libmatroska v1.4.2
    Attachements : cover.jpeg
    DURATION : 00:42:36.000000000
    NUMBER_OF_FRAMES : 79875
    NUMBER_OF_BYTES : 122688000
    _STATISTICS_WRITING_APP : mkvmerge v8.2.0 (\'World of Adventure\') 64bit
    _STATISTICS_WRITING_DATE_UTC : 2015-08-25 14:16:08
    _STATISTICS_TAGS : BPS DURATION NUMBER_OF_FRAMES NUMBER_OF_BYTES
    Видео
    Идентификатор : 1
    Формат : AVC
    Формат/Информация : Advanced Video Codec
    Профиль формата : High@L4
    Параметр CABAC формата : Да
    Параметр ReFrames формата : 4 кадра
    Идентификатор кодека : V_MPEG4/ISO/AVC
    Продолжительность : 42 м.
    Битрейт : 5077 Кбит/сек
    Ширина : 1920 пикселей
    Высота : 1080 пикселей
    Соотношение сторон : 16:9
    Режим частоты кадров : Постоянный
    Частота кадров : 23, 976 кадра/сек
    Цветовое пространство : YUV
    Субдискретизация насыщенности : 4:2:0
    Битовая глубина : 8 бит
    Тип развёртки : Прогрессивная
    Бит/(Пиксели*Кадры) : 0.102
    Размер потока : 1, 51 Гбайт (80%)
    Заголовок : Killjoys.S01E01.1080p.WEB-DL.DD5.1.H.264-RARBG
    Язык : English
    Default : Да
    Forced : Нет
    Цветовой диапазон : Limited
    Основные цвета : BT.709
    Характеристики трансфера : BT.709
    Коэффициенты матрицы : BT.709
    Аудио #1
    Идентификатор : 2
    Формат : AC-3
    Формат/Информация : Audio Coding 3
    Расширение режима : CM (complete main)
    Параметр Endianness формата : Big
    Идентификатор кодека : A_AC3
    Продолжительность : 42 м.
    Вид битрейта : Постоянный
    Битрейт : 384 Кбит/сек
    Каналы : 6 каналов
    Расположение каналов : Front: L C R, Side: L R, LFE
    Частота : 48, 0 КГц
    Метод сжатия : С потерями
    Размер потока : 117 Мбайт (6%)
    Заголовок : BaibaKo
    Язык : Russian
    Default : Да
    Forced : Нет
    Аудио #2
    Идентификатор : 3
    Формат : AC-3
    Формат/Информация : Audio Coding 3
    Расширение режима : CM (complete main)
    Параметр Endianness формата : Big
    Идентификатор кодека : A_AC3
    Продолжительность : 42 м.
    Вид битрейта : Постоянный
    Битрейт : 384 Кбит/сек
    Каналы : 6 каналов
    Расположение каналов : Front: L C R, Side: L R, LFE
    Частота : 48, 0 КГц
    Метод сжатия : С потерями
    Размер потока : 117 Мбайт (6%)
    Заголовок : LostFilm
    Язык : Russian
    Default : Нет
    Forced : Нет
    Аудио #3
    Идентификатор : 4
    Формат : AC-3
    Формат/Информация : Audio Coding 3
    Расширение режима : CM (complete main)
    Параметр Endianness формата : Big
    Идентификатор кодека : A_AC3
    Продолжительность : 42 м.
    Вид битрейта : Постоянный
    Битрейт : 384 Кбит/сек
    Каналы : 6 каналов
    Расположение каналов : Front: L C R, Side: L R, LFE
    Частота : 48, 0 КГц
    Метод сжатия : С потерями
    Размер потока : 117 Мбайт (6%)
    Заголовок : Original
    Язык : English
    Default : Нет
    Forced : Нет
    Текст
    Идентификатор : 5
    Формат : UTF-8
    Идентификатор кодека : S_TEXT/UTF8
    Идентификатор кодека/Информация : UTF-8 Plain Text
    Заголовок : CC
    Язык : English
    Default : Нет
    Forced : Нет


    Скриншоты для ознакомления




    Киллджойс/Килджой/Кайфоломы/Killjoys (2015) WEB-DL [H.264/1080p-LQ] (сезон 1, серия 1-10 из 10) (BaibaKo, LostFilm)
    загрузка...
    Рейтинг →
     (голосов: 1, оценка 5/5, голосовать можно 1 раз )

    Другие торренты по теме:

  • Киллджойс / Килджой / Кайфоломы / Killjoys (2015) WEB-DLRip (сезон 1, серии 1 из 10) LostFilm (обновляемая) скачать через торрент бесплатно
  • Киллджойс / Килджой / Кайфоломы / Killjoys (2015) WEB-DLRip (сезон 1, серия 01 из 10) BaibaKo (обновляемая) скачать через торрент бесплатно
  • Киллджойс / Килджой / Кайфоломы / Killjoys (2015) WEB-DL [H.264 / 720p-LQ] (сезон 1, серии 1 из 10) BaibaKo (обновляемая) скачать через торрент бесплатно
  • Киллджойс / Килджой / Кайфоломы / Killjoys (2015) WEB-DL [H.264] (Сезон 1, серия 1 из 13) LostFilm [MP4|1280x720] скачать через торрент бесплатно
  • Киллджойс / Килджой / Кайфоломы / Killjoys (2015) WEB-DLRip [H.264] (Сезон 1, серия 1 из 10) BaibaKo [MP4|720x400] скачать через торрент бесплатно
  • Киллджойс / Килджой / Кайфоломы / Killjoys (2015) WEB-DL [H.264 / 1080p-LQ] (сезон 1, серия 1 из 10) LostFilm (обновляемая) скачать через торрент бесплатно
  • Киллджойс / Килджой / Кайфоломы / Killjoys (2015) WEB-DL [H.264 / 1080p-LQ] (сезон 1, серия 1-10 из 10) BaibaKo скачать через торрент бесплатно
  • Киллджойс / Килджой / Кайфоломы / Killjoys (2016) WEB-DLRip (сезон 2, серии 1 из 10) LostFilm (обновляемая)


    • Комментарии (0):

      Информация

      Информация

        Посетители, находящиеся в группе Гости, не могут оставлять комментарии в данной новости.

        ↓ Меню




        ↓ Опрос

        Вы добавили сайт в закладки?
        Да
        Нет


        Top 10 за месяц (Фильмы)