.
Авторизация | Регистрация
Хочешь лучшие торренты? Добавь свой email!
Добавить

Торрент скачать бесплатно

» » Блант говорит / Blunt Talk (2015) HDTV [H.264 / 720p-LQ] (cезон 1, серии 1 из 10) Jaskier (обновляемая) скачать через торрент бесплатно




    Блант говорит / Blunt Talk (2015) HDTV [H.264 / 720p-LQ] (cезон 1, серии 1 из 10) Jaskier (обновляемая) скачать через торрент бесплатно

    Опубликовал: Админ | Дата: 26-08-2015, 04:00 | Просмотров: 85

    Производство: США, Fuzzy Door Productions, Media Rights Capital
    Жанр: комедия
    Режиссер: Тристрам Шапиро, Билл Д’Элиа

    Актеры
    Патрик Стюарт, Эдриан Скарборо, Тимм Шарп, Джеки Уивер, Долли Уэллс, Каран Сони, Мэри Холлэнд, Ричард Льюис, Кен Уейлер, Эйдан Кларк и др.

    Описание

    Эксцентричный британский телеведущий Уолтер Блант переезжает в Лос-Анджелес вместе со своим слугой-алкоголиком и багажом из нескольких неудачных браков, чтобы вести собственное ток-шоу, в котором Блант пытается давать американцам мудрые на его взгляд советы о правильном образе жизни, мыслях и поведении, хотя самого Уолтера трудно назвать примером для подражания.

    Дата мировой премьеры: 22.08.2015
    Продолжительность: ~ 00: 33: 00 серия
    Качество видео: HDTVRip 720p
    Перевод: Многоголосый закадровый, профессиональный - Jaskier
    Видео: AVC/H.264, 1280x720 (16: 9), ~3116 Kbps
    Аудио №1 Rus: AC3, 48, 0 KHz, 2 ch, 192 kbps - многоголосый закадровый
    Аудио №2 Eng: AC3, 48, 0 KHz, 6 ch, 384 kbps - оригинал
    Код:

    General
    Format : Matroska
    Format version : Version 1
    File size : 814 MiB
    Duration : 30mn 12s
    Overall bit rate : 3 767 Kbps
    Encoded date : UTC 2015-08-25 15:44:27
    Writing application : mkvmerge v2.3.0 (\'Freak U\') built on Sep 8 2008 18:32:16
    Writing library : libebml v0.7.7 + libmatroska v0.8.1
    Video
    ID : 1
    Format : AVC
    Format/Info : Advanced Video Codec
    Format profile :High@L4.1
    Format settings, CABAC : Yes
    Format settings, ReFrames : 5 frames
    Codec ID : V_MPEG4/ISO/AVC
    Duration : 30mn 12s
    Bit rate : 3 116 Kbps
    Width : 1 280 pixels
    Height : 720 pixels
    Display aspect ratio : 16:9
    Frame rate mode : Constant
    Frame rate : 23.976 fps
    Color space : YUV
    Chroma subsampling : 4:2:0
    Bit depth : 8 bits
    Scan type : Progressive
    Bits/(Pixel*Frame) : 0.141
    Stream size : 673 MiB (83%)
    Writing library : x264 core 148 r2579 73ae2d1
    Encoding settings : cabac=1/ref=5/deblock=1:0:0/analyse=0x3:0x113/me=umh/subme=8/psy=1/psy_rd=1.00:0.00/mixed_ref=1/me_range=16/chroma_me=1/trellis=1/8x8dct=1/cqm=0/deadzone=21, 11/fast_pskip=1/chroma_qp_offset=-2/threads=18/lookahead_threads=3/sliced_threads=0/nr=0/decimate=1/interlaced=0/bluray_compat=0/constrained_intra=0/bframes=3/b_pyramid=2/b_adapt=2/b_bias=0/direct=3/weightb=1/open_gop=0/weightp=2/keyint=250/keyint_min=23/scenecut=40/intra_refresh=0/rc_lookahead=50/rc=crf/mbtree=1/crf=18.0/qcomp=0.60/qpmin=0/qpmax=69/qpstep=4/ip_ratio=1.40/aq=1:1.00
    Language : English
    Default : Yes
    Forced : No
    Color range : Limited
    Matrix coefficients : BT.709
    Audio #1
    ID : 2
    Format : AC-3
    Format/Info : Audio Coding 3
    Mode extension : CM (complete main)
    Format settings, Endianness : Big
    Codec ID : A_AC3
    Duration : 30mn 12s
    Bit rate mode : Constant
    Bit rate : 192 Kbps
    Channel(s) : 2 channels
    Channel positions : Front: L R
    Sampling rate : 48.0 KHz
    Compression mode : Lossy
    Stream size : 41.5 MiB (5%)
    Language : Russian
    Default : Yes
    Forced : No
    Audio #2
    ID : 3
    Format : AC-3
    Format/Info : Audio Coding 3
    Mode extension : CM (complete main)
    Format settings, Endianness : Big
    Codec ID : A_AC3
    Duration : 30mn 12s
    Bit rate mode : Constant
    Bit rate : 384 Kbps
    Channel(s) : 6 channels
    Channel positions : Front: L C R, Side: L R, LFE
    Sampling rate : 48.0 KHz
    Compression mode : Lossy
    Stream size : 82.9 MiB (10%)
    Language : English
    Default : No
    Forced : No


    Скриншоты для ознакомления




    Блант говорит/Blunt Talk (2015) HDTV [H.264/720p-LQ] (cезон 1, серии 1 из 10) Jaskier (обновляемая)
    загрузка...
    Рейтинг →
     (голосов: 1, оценка 5/5, голосовать можно 1 раз )

    Другие торренты по теме:

  • Блант без обиняков / Блант говорит / Blunt Talk (2015) WEB-DLRip (cезон 1, серии 1-10 из 10) AlexFilm скачать через торрент бесплатно
  • Блант говорит / Blunt Talk (2015) HDTV [H.264 / 720p-LQ] (cезон 1, серии 1-5 из 10) AlexFilm (обновляемая) скачать через торрент бесплатно


    • Комментарии (0):

      Информация

      Информация

        Посетители, находящиеся в группе Гости, не могут оставлять комментарии в данной новости.

        ↓ Меню




        ↓ Опрос

        Вы добавили сайт в закладки?
        Да
        Нет


        Top 10 за месяц (Фильмы)