.
Авторизация | Регистрация
Хочешь лучшие торренты? Добавь свой email!
Добавить

Торрент скачать бесплатно

» » Михайло Ломоносов (1986) DVDRip [H.264] (9 серий из 9) скачать через торрент бесплатно




    Михайло Ломоносов (1986) DVDRip [H.264] (9 серий из 9) скачать через торрент бесплатно

    Опубликовал: Админ | Дата: 25-08-2015, 04:00 | Просмотров: 107

    Производство: СССР
    Жанр: Драма
    Режиссер: Александр Прошкин

    Актеры
    Игорь Волков, Александр Михайлов, Анатолий Васильев, Людмила Полякова, Андрей Дударенко, Сос Саркесян, Александр Ткаченок, Дмитрий Диджиокас, Анна Фроловцева, Наталья Сайко, Олег Меньшиков, Илзе Лиепа, Юри Ярвет, Александр Сирин, Сергей Ковкин, Юрий Волков, Николай Прокопович, Евгений Дворжецкий, Борис Химичев, Эльвира Жебертавичуте, Марина Полицеймако, Виктор Степанов, Настя Деревщикова, Юрий Волков, Георгий Дрозд, Иван Воронов, Александр Стариков, Сергей Плотников, Сергей Коковкийн, Аристарх Ливанов, Дмитрий Писаренко, Марина Яковлева, Владимир Тюкин, Лев Лемке, Андрей Молотков, Константин Сопельников, Евгений Бабак, Андрей Галушко

    Описание

    История России 18-го века через жизнь и деятельность выдающегося ученого и литератора Михаила Ломоносова. Фильм состоит из 3х глав: От недр своих, Врата учености и Во славу Отечества, в каждой из которой по 3 серии. Первая глава повествует о детстве и отрочестве будущего великого ученого. Во второй главе рассказывается о годах учебы Михаила Васильевича Ломоносова, о становлении его научных взглядов. В третьей главе показаны последние годы жизни ученого, ставшего академиком и получившего мировую известность за свои научные открытия.

    Продолжительность: 11: 03: 23
    Качество видео: DVDRip
    Видео: AVC/H.264, 720x536, ~1500 kbps
    Аудио: AC3, 2 ch, 160 kbps
    Код:

    ************************************************
    Все серии кодировались с едиными настройками кодеков
    ************************************************
    General
    Unique ID : 178867102572417132730007648447123587889 (0x86908D07314D3C6BA49ED1081C8A8331)
    Complete name : Михайло Ломоносов.mkv
    Format : Matroska
    Format version : Version 4/Version 2
    Overall bit rate : 1 660 Kbps
    Movie name : Михайло Ломоносов 9 серий (rip by smithland)
    Encoded date : UTC 2010-02-22 21:41:31
    Writing application : mkvmerge v5.9.0 (\'On The Loose\')
    Writing library : libebml v1.3.0 + libmatroska v1.4.0
    Attachements : cover.jpg
    Video
    ID : 1
    Format : AVC
    Format/Info : Advanced Video Codec
    Format profile :High@L4.0
    Format settings, CABAC : Yes
    Format settings, ReFrames : 10 frames
    Codec ID : V_MPEG4/ISO/AVC
    Bit rate : 1 500 Kbps
    Width : 720 pixels
    Height : 536 pixels
    Display aspect ratio : 4:3
    Frame rate mode : Constant
    Frame rate : 25.000 fps
    Color space : YUV
    Chroma subsampling : 4:2:0
    Bit depth : 8 bits
    Scan type : Progressive
    Bits/(Pixel*Frame) : 0.155
    Stream size : 753 MiB (88%)
    Writing library : x264 core 130 r2273 b3065e6
    Encoding settings : cabac=1/ref=10/deblock=1:-2:-1/analyse=0x3:0x133/me=umh/subme=11/psy=1/psy_rd=1.35:0.30/mixed_ref=1/me_range=30/chroma_me=1/trellis=2/8x8dct=1/cqm=0/deadzone=21, 11/fast_pskip=0/chroma_qp_offset=-4/threads=12/lookahead_threads=1/sliced_threads=0/nr=0/decimate=0/interlaced=0/bluray_compat=0/constrained_intra=0/bframes=7/b_pyramid=2/b_adapt=1/b_bias=0/direct=1/weightb=1/open_gop=1/weightp=2/keyint=300/keyint_min=25/scenecut=40/intra_refresh=0/rc_lookahead=50/rc=abr/mbtree=1/bitrate=1500/ratetol=1.0/qcomp=0.60/qpmin=0/qpmax=69/qpstep=4/ip_ratio=1.41/aq=1:1.10
    Language : Russian
    Default : Yes
    Forced : Yes
    Color primaries : Generic film
    Color range : Limited
    Audio
    ID : 2
    Format : AC-3
    Format/Info : Audio Coding 3
    Mode extension : CM (complete main)
    Format settings, Endianness : Big
    Codec ID : A_AC3
    Bit rate mode : Constant
    Bit rate : 160 Kbps
    Channel(s) : 2 channels
    Channel positions : Front: L R
    Sampling rate : 48.0 KHz
    Bit depth : 16 bits
    Compression mode : Lossy
    Stream size : 82.2 MiB (10%)
    Language : Russian
    Default : Yes
    Forced : Yes


    Скриншоты для ознакомления




    Михайло Ломоносов (1986) DVDRip [H.264] (9 серий из 9)
    загрузка...
    Рейтинг →
     (голосов: 1, оценка 4/5, голосовать можно 1 раз )

    Другие торренты по теме:

  • Михайло Ломоносов (1986) DVDRip [H.264 / hand made 60fps] скачать через торрент бесплатно
  • Михайло Ломоносов (1986) DVDRip [H.264] (серии 1-9 из 9)
  • Михайло Ломоносов (1986) DVBRip [H.264] (серии 1-9 из 9)


    • Комментарии (0):

      Информация

      Информация

        Посетители, находящиеся в группе Гости, не могут оставлять комментарии в данной новости.

        ↓ Меню




        ↓ Опрос

        Вы добавили сайт в закладки?
        Да
        Нет


        Top 10 за месяц (Фильмы)