.
Авторизация | Регистрация
Хочешь лучшие торренты? Добавь свой email!
Добавить

Торрент скачать бесплатно

» » И шарик вернется (2015) SATRip (серии 1-4 из 8) (обновляемая) скачать через торрент бесплатно




    И шарик вернется (2015) SATRip (серии 1-4 из 8) (обновляемая) скачать через торрент бесплатно

    Опубликовал: Админ | Дата: 24-08-2015, 04:00 | Просмотров: 278

    Производство: Россия, Кинокомпания Русское
    Жанр: мелодрама
    Режиссер: Валерий Девятилов

    Актеры
    Татьяна Космачёва, Полина Филоненко, Олеся Фаттахова, Юлия Юрченко, Екатерина Травова, Павел Кузьмин, Наталья Муравьевская, Елена Лотова, Родион Галюченко, Дмитрий Зеничев, Дмитрий Мазуров, Владимир Колганов, Денис Юченков и др.

    Описание

    Таня, Вера, Шура и Светик — одноклассницы и закадычные подруги. Непохожие друг на друга, но всюду неразлучные девчонки, кажется, и по жизни пойдут рука об руку. Но на школьном выпускном происходит страшное событие, вдребезги разбившее радужные мечты о светлом и счастливом мире. Спасая подругу Шуру от хулиганов, Тане не удается уберечься самой, и девушку ... Вилами по воде писано, сказал кто то из толпы, к чему не понятно. Подруги не приходят ей на помощь — каждая оказывается увлечена своими делами. После произошедшей трагедии дружба распадается, как карточный домик — Таня не может простить предательства, хочет забыть прошлое и начать жизнь с чистого листа. Девушкам предстоит пройти немало испытаний, переоценить свои поступки и научиться прощать, прежде чем обрести свой путь, найти счастье, и понять, что они связаны судьбой…

    Дата премьеры в РФ: 2015
    Релиз от: Files-x
    Продолжительность: ~ 00: 46: 00 серия
    Качество видео: SATRip
    Видео: XviD, 720x400, ~1500 kb/s
    Аудио: AC-3, 2 ch, 192 kb/s, CBR
    Общее
    Полное имя : D: И шарик вернется (2015) SATRip1.I.sharik.vernetsia..2015.SATRip.Files-x.avi
    Формат : AVI
    Формат/Информация : Audio Video Interleave
    Размер файла : 550 Мбайт
    Продолжительность : 45 м.
    Общий поток : 1700 Кбит/сек
    Программа кодирования : VirtualDubMod 1.5.10.3 |www.virtualdub-fr.org|| (build 2550/release)
    Библиотека кодирования : VirtualDubMod build 2550/release
    Видео
    Идентификатор : 0
    Формат : MPEG-4 Visual
    Профиль формата : Advanced Simple@L5
    Параметр BVOP формата : 1
    Параметр QPel формата : Нет
    Параметр GMC формата : Без точки перехода
    Параметр матрицы формата : Выборочная
    Идентификатор кодека : XVID
    Идентификатор кодека/Подсказка : XviD
    Продолжительность : 45 м.
    Битрейт : 1498 Кбит/сек
    Ширина : 720 пикселей
    Высота : 400 пикселей
    Соотношение сторон : 16: 9
    Частота кадров : 24, 000 кадра/сек
    Цветовое пространство : YUV
    Субдискретизация насыщенности : 4: 2: 0
    Битовая глубина : 8 бит
    Тип развёртки : Прогрессивная
    Метод сжатия : С потерями
    Бит/(Пиксели*Кадры) : 0.217
    Размер потока : 485 Мбайт (88%)
    Библиотека кодирования : XviD 73
    Аудио
    Идентификатор : 1
    Формат : AC-3
    Формат/Информация : Audio Coding 3
    Расширение режима : CM (complete main)
    Параметр Endianness формата : Big
    Идентификатор кодека : 2000
    Продолжительность : 45 м.
    Вид битрейта : Постоянный
    Битрейт : 192 Кбит/сек
    Каналы : 2 канала
    Расположение каналов : Front: L R
    Частота : 48, 0 КГц
    Метод сжатия : С потерями
    Размер потока : 62, 1 Мбайт (11%)
    Выравнивание : Разделение по промежуткам
    Продолжительность промежутка : 42 мс. (1, 00 видеокадр)
    Время предзагрузки промежутка : 500 мс.


    Скриншоты для ознакомления




    И шарик вернется (2015) SATRip (серии 1-4 из 8) (обновляемая)
    загрузка...
    Рейтинг →
     (голосов: 1, оценка 3/5, голосовать можно 1 раз )

    Другие торренты по теме:

  • И шарик вернется (2015) HDTV [H.264 / 1080i-LQ] (серии 1-8 из 8)
  • И шарик вернется (2015) WEB-DL [H.264 / 1080p-LQ] (серии 1-8 из 8)


    • Комментарии (0):

      Информация

      Информация

        Посетители, находящиеся в группе Гости, не могут оставлять комментарии в данной новости.

        ↓ Меню




        ↓ Опрос

        Вы добавили сайт в закладки?
        Да
        Нет


        Top 10 за месяц (Фильмы)