.
Авторизация | Регистрация
Хочешь лучшие торренты? Добавь свой email!
Добавить

Торрент скачать бесплатно

» » Испытание верности (1954) HDTV [H.264 / 1080i] скачать через торрент бесплатно




    Испытание верности (1954) HDTV [H.264 / 1080i] скачать через торрент бесплатно

    Опубликовал: Админ | Дата: 24-08-2015, 04:00 | Просмотров: 169

    Производство: СССР, Мосфильм
    Жанр: Мелодрама
    Режиссер: Иван Пырьев

    Актеры
    Сергей Ромоданов, Марина Ладынина, Леонид Галлис, Василий Топорков, Нина Гребешкова, Александр Михайлов, Станислав Чекан, Олег Голубицкий, Зинаида Руднева, Николай Тимофеев

    Описание

    Кинодрама о непростых человеческих судьбах, о любви и разлуке, измене и преданности, происходящих в семье потомственного рабочего Егора Кузьмича Лутонина. Старый потомственный рабочий, Егор Кузьмич Лутонин, мастер дела и уважаемый на заводе человек, в один прекрасный день вдруг понял, что его дочери не вполне счастливы: Ольга развелась с мужем, Варя полюбила недостойного мужчину… И решил Егор Кузьмич помочь своим девочкам стать счастливыми…

    Продолжительность: 01: 50: 29
    Качество видео: HDTV 1080i
    Видео: AVC/H.264, 1920х1080, ~6345 kbps
    Аудио 1: MPEG Layer 2, 2 ch, 48 kHz, 224 kbps
    Аудио 2: АС-3, 6 ch, 48 kHz, 384 kbps
    Семпл: Скачать
    Код:

    Общее
    Идентификатор : 16 (0x10)
    Полное имя : Ispytanie vernosti_HD.ts
    Формат : MPEG-TS
    Размер файла : 5, 65 Гбайт
    Продолжительность : 1 ч. 50 м.
    Режим общего битрейта : Переменный
    Общий поток : 7321 Кбит/сек
    Видео
    Идентификатор : 1902 (0x76E)
    Идентификатор меню : 92 (0x5C)
    Формат : AVC
    Формат/Информация : Advanced Video Codec
    Профиль формата :High@L4.0
    Параметр CABAC формата : Да
    Параметр ReFrames формата : 3 кадра
    Параметр GOP формата : M=4, N=32
    Идентификатор кодека : 27
    Продолжительность : 1 ч. 50 м.
    Битрейт : 6345 Кбит/сек
    Ширина : 1920 пикселей
    Высота : 1080 пикселей
    Соотношение сторон : 16:9
    Частота кадров : 25, 000 кадров/сек
    Стандарт вещания : PAL
    Цветовое пространство : YUV
    Субдискретизация насыщенности : 4:2:0
    Битовая глубина : 8 бит
    Тип развёртки : Чересстрочная
    Порядок развёртки : Верхнее поле первое
    Бит/(Пиксели*Кадры) : 0.122
    Размер потока : 4, 90 Гбайт (87%)
    Основные цвета : BT.709
    Характеристики трансфера : BT.709
    Коэффициенты матрицы : BT.709
    Аудио #1
    Идентификатор : 2902 (0xB56)
    Идентификатор меню : 92 (0x5C)
    Формат : MPEG Audio
    Версия формата : Version 1
    Профиль формата : Layer 2
    Идентификатор кодека : 4
    Продолжительность : 1 ч. 50 м.
    Вид битрейта : Постоянный
    Битрейт : 224 Кбит/сек
    Каналы : 2 канала
    Частота : 48, 0 КГц
    Метод сжатия : С потерями
    Задержка видео : 48 мс.
    Размер потока : 177 Мбайт (3%)
    Язык : std
    Язык, дополнительно : Clean effects
    Аудио #2
    Идентификатор : 3902 (0xF3E)
    Идентификатор меню : 92 (0x5C)
    Формат : AC-3
    Формат/Информация : Audio Coding 3
    Расширение режима : CM (complete main)
    Параметр Endianness формата : Big
    Идентификатор кодека : 6
    Продолжительность : 1 ч. 50 м.
    Вид битрейта : Постоянный
    Битрейт : 384 Кбит/сек
    Каналы : 6 каналов
    Расположение каналов : Front: L C R, Side: L R, LFE
    Частота : 48, 0 КГц
    Битовая глубина : 16 бит
    Метод сжатия : С потерями
    Задержка видео : 99 мс.
    Размер потока : 303 Мбайт (5%)
    Язык : std
    Язык, дополнительно : Clean effects
    Текст
    Идентификатор : 33 (0x21)-100
    Идентификатор меню : 92 (0x5C)
    Формат : Teletext
    Меню
    Идентификатор : 902 (0x386)
    Идентификатор меню : 92 (0x5C)
    Продолжительность : 1 ч. 50 м.
    Список : 1902 (0x76E) (AVC)/2902 (0xB56) (MPEG Audio, std)/3902 (0xF3E) (AC-3, std)/33 (0x21) ()
    Язык : /std/std


    Скриншоты для ознакомления




    Испытание верности (1954) HDTV [H.264/1080i]
    загрузка...
    Рейтинг →
     (голосов: 1, оценка 4/5, голосовать можно 1 раз )

    Другие торренты по теме:

  • Полигон. Тор. Испытание (2014.12.06) SATRip скачать через торрент бесплатно
  • Испытание (2014) WEB-DL [H.264 / 1080p-LQ] скачать через торрент бесплатно
  • Испытание (2014) WEB-DL [1080p] ATV
  • Испытание (2014) WEB-DLRip [H.264] скачать через торрент бесплатно
  • Испытание (2014) WEB-DLRip скачать через торрент бесплатно
  • Испытание (2014) WEB-DLRip скачать через торрент бесплатно
  • Испытание (2014) WEB-DLRip [480p] iPod
  • Discovery: Беар Гриллс: испытание страхом / Bear Grylls: Breaking Point (2014) HDTVRip [1 серия из ] скачать через торрент бесплатно


    • Комментарии (0):

      Информация

      Информация

        Посетители, находящиеся в группе Гости, не могут оставлять комментарии в данной новости.

        ↓ Меню




        ↓ Опрос

        Вы добавили сайт в закладки?
        Да
        Нет


        Top 10 за месяц (Фильмы)