.
Авторизация | Регистрация
Хочешь лучшие торренты? Добавь свой email!
Добавить

Торрент скачать бесплатно

» » Оборотень / Волчонок / Teen Wolf (2015) WEB-DL [H.264 / 720p-LQ] (cезон 5, серии 1-7 из 20) (Alternative Production, VO-production) (обновляемая) скачать через торрент бесплатно




    Оборотень / Волчонок / Teen Wolf (2015) WEB-DL [H.264 / 720p-LQ] (cезон 5, серии 1-7 из 20) (Alternative Production, VO-production) (обновляемая) скачать через торрент бесплатно

    Опубликовал: Админ | Дата: 23-08-2015, 04:01 | Просмотров: 126

    Производство: США, MGM Television, MTV
    Жанр: ужасы, триллер, драма, мелодрама, комедия
    Режиссер: Тим Эндрю, Рассел Малкэй, Тоби Уилкинс

    Актеры
    Дилан О’Брайэн, Тайлер Пози, Арден Чо, Холлэнд Роден, Тайлер Хэклин, Шелли Хеннинг, Линден Эшби, ДжейАр Борн, Мелисса Понцио, Иэн Боэн и др.

    Описание

    Скотт был просто обычным парнем, пока один укус не изменил его жизнь навсегда. Теперь он изо всех сил пытается понять, кто он и кем он может стать. В нём больше волка чем человека - или всё совсем наоборот? Как бы то ни было, легко не будет. Благодатная почва, сказал кто то из толпы, к чему не понятно. Скотт попытается управлять своими наклонностями, но больше всего он боится, что эти его новые наклонности, в конце концов, начнут управлять им.
    Волчонок - молодёжный мистико-драматический телесериал, снятый в США по мотивам одноимённого фильма 1985 года по заказу канала MTV. Премьера состоялась 5 июня 2011 года после церемонии вручения наград MTV Movie Awards.

    Продолжительность: ~00: 42: 00 серия
    Качество видео: WEB-DL
    Перевод: Двуголосый закадровый, любительский (Alternative Production, VO-production)
    Вид субтитров: вшитые отключаемые
    Язык субтитров: английский
    Видео: AVC/H.264, 1280x718, ~3940 Kbps
    Аудио Rus: AC3, 6 ch, 384 Kbps, CBR (двуголосый закадровый - Alternative Production)
    Аудио Rus: AC3, 2 ch, 256 Kbps, CBR (двуголосый закадровый - VO-production)
    Аудио Eng: AC3, 6 ch, 384 Kbps, CBR (оригинал)
    Код:

    General
    Unique ID : 205284852320571010014419653112336819197 (0x9A706CA6E053C0B8B4184083367123FD)
    Complete name : Teen Wolf S05E03 720p WEB-DL 2xRus Eng Sub bySG.mkv
    Format : Matroska
    Format version : Version 2
    File size : 1.48 GiB
    Duration : 41mn 56s
    Overall bit rate : 5 063 Kbps
    Encoded date : UTC 2015-08-14 15:57:44
    Writing application : mkvmerge v5.7.0 (\'The Whirlwind\') built on Jul 8 2012 20:08:51
    Writing library : libebml v1.2.3 + libmatroska v1.3.0
    DURATION : 00:40:41.804000000
    NUMBER_OF_FRAMES : 612
    NUMBER_OF_BYTES : 21672
    _STATISTICS_WRITING_APP : mkvmerge v8.1.0 (\'Psychedelic Postcard\') 64bit
    _STATISTICS_WRITING_DATE_UTC : 2015-07-07 22:15:19
    _STATISTICS_TAGS : BPS DURATION NUMBER_OF_FRAMES NUMBER_OF_BYTES
    Video
    ID : 1
    Format : AVC
    Format/Info : Advanced Video Codec
    Format profile :High@L3.1
    Format settings, CABAC : No
    Format settings, ReFrames : 2 frames
    Codec ID : V_MPEG4/ISO/AVC
    Duration : 41mn 56s
    Bit rate : 3 939 Kbps
    Width : 1 280 pixels
    Height : 718 pixels
    Display aspect ratio : 16:9
    Frame rate mode : Constant
    Frame rate : 23.976 fps
    Color space : YUV
    Chroma subsampling : 4:2:0
    Bit depth : 8 bits
    Scan type : Progressive
    Bits/(Pixel*Frame) : 0.179
    Stream size : 1.15 GiB (78%)
    Language : English
    Default : Yes
    Forced : No
    Color primaries : BT.709
    Transfer characteristics : BT.709
    Matrix coefficients : BT.709
    Audio #1
    ID : 2
    Format : AC-3
    Format/Info : Audio Coding 3
    Mode extension : CM (complete main)
    Format settings, Endianness : Big
    Codec ID : A_AC3
    Duration : 41mn 56s
    Bit rate mode : Constant
    Bit rate : 384 Kbps
    Channel(s) : 6 channels
    Channel positions : Front: L C R, Side: L R, LFE
    Sampling rate : 48.0 KHz
    Bit depth : 16 bits
    Compression mode : Lossy
    Stream size : 115 MiB (8%)
    Title : Alt Pro
    Language : Russian
    Default : Yes
    Forced : No
    Audio #2
    ID : 3
    Format : AC-3
    Format/Info : Audio Coding 3
    Mode extension : CM (complete main)
    Format settings, Endianness : Big
    Codec ID : A_AC3
    Duration : 41mn 56s
    Bit rate mode : Constant
    Bit rate : 256 Kbps
    Channel(s) : 2 channels
    Channel positions : Front: L R
    Sampling rate : 48.0 KHz
    Bit depth : 16 bits
    Compression mode : Lossy
    Stream size : 76.8 MiB (5%)
    Title : VO-production
    Language : Russian
    Default : No
    Forced : No
    Audio #3
    ID : 4
    Format : AC-3
    Format/Info : Audio Coding 3
    Mode extension : CM (complete main)
    Format settings, Endianness : Big
    Codec ID : A_AC3
    Duration : 41mn 56s
    Bit rate mode : Constant
    Bit rate : 384 Kbps
    Channel(s) : 6 channels
    Channel positions : Front: L C R, Side: L R, LFE
    Sampling rate : 48.0 KHz
    Bit depth : 16 bits
    Compression mode : Lossy
    Stream size : 115 MiB (8%)
    Title : Original
    Language : English
    Default : No
    Forced : No
    Text
    ID : 5
    Format : UTF-8
    Codec ID : S_TEXT/UTF8
    Codec ID/Info : UTF-8 Plain Text
    Title : Eng_Sub
    Language : English
    Default : No
    Forced : No


    Скриншоты для ознакомления




    Оборотень/Волчонок/Teen Wolf (2015) WEB-DL [H.264/720p-LQ] (cезон 5, серии 1-7 из 20) (Alternative Production, VO-production) (обновляемая)
    загрузка...
    Рейтинг →
     (голосов: 1, оценка 4/5, голосовать можно 1 раз )

    Другие торренты по теме:

  • Оборотень / Wer (2013) HDRip [576p] iPad [Line] скачать через торрент бесплатно
  • Следствие вели... с Леонидом Каневским. Оборотень в мундире. Выпуск 288 (13.12.2014) SATRip скачать через торрент бесплатно
  • Оборотень / Wer (2013) BDRip [1080p] [Line] скачать через торрент бесплатно
  • Моя мама - оборотень / My Moms a Werewolf (1989) DVDRip скачать через торрент бесплатно
  • Оборотень / Волчонок / Teen Wolf (2015) HDTVRip (сезон 5, серии 1-2 из 10) (Alternative Production) (обновляемая) скачать через торрент бесплатно
  • Николай Ютанов | Оборотень (1990) [FB2] скачать через торрент бесплатно
  • Оборотень / Волчонок / Teen Wolf (2014) IPTVRip (сезон 4, серии 1-12 из 12) Sony Sci-Fi
  • Оборотень / Ginger Snaps (2000-2004) BDRemux [H.264 / 1080p] [Трилогия]


    • Комментарии (0):

      Информация

      Информация

        Посетители, находящиеся в группе Гости, не могут оставлять комментарии в данной новости.

        ↓ Меню




        ↓ Опрос

        Вы добавили сайт в закладки?
        Да
        Нет


        Top 10 за месяц (Фильмы)