.
Авторизация | Регистрация
Хочешь лучшие торренты? Добавь свой email!
Добавить

Торрент скачать бесплатно

» » Полицейский участок (2015) HDTV [H.264 / 1080i-LQ] (серии 1-14 из 16) (обновляемая) скачать через торрент бесплатно




    Полицейский участок (2015) HDTV [H.264 / 1080i-LQ] (серии 1-14 из 16) (обновляемая) скачать через торрент бесплатно

    Опубликовал: Админ | Дата: 21-08-2015, 04:00 | Просмотров: 109

    Производство: Россия, ВайТ Медиа
    Жанр: детектив
    Режиссер: Мирослав Малич

    Актеры
    Анна Снаткина, Олег Долин, Андрей Кузнецов, Михаил Тарабукин, Виктория Стивина, Петр Логачев, Роман Агеев, Андрей Чернышов, Анна Алексахина, Игорь Черневич, Кирилл Жандаров, Илья Борисов, Геннадий Смирнов, Алексей Фокин, Вячеслав Гумеров, Иван Кавунов, Майя Айрин Вада, Игорь Опарин и др.

    Описание

    После убийства мужа, собравшего компромат на чиновников очень высокого ранга, главную героиню — Полину Левашову (майора полиции) под вымышленной фамилией (Фомина) отправляют из Петербурга в маленький провинциальный город, чтобы спрятать от преступников, которые уверены, что информация с компроматом находится у неё.
    Там этой с виду хрупкой женщине предстоит возглавить отделение полиции, завоевать доверие команды полицейских-мужчин и защитить себя и детей от тех, кто убил ее мужа, а теперь, в погоне за секретными материалами, которые собрал её муж, охотятся за ней.

    Дата премьеры в РФ: 10 августа 2015
    Продолжительность: ~ 00: 45: 00 серия
    Качество видео: HDTV
    Видео: AVC/H.264, 1920x1080 (16: 9), ~7000 Kbps
    Аудио: AC3, 2 ch, 192 Kbps
    Код:
    Общее
    Уникальный идентификатор : 200583298443608887837746324966329195617 (0x96E6F0261E7B2998B856154B47629C61)
    Полное имя : F:DOWNLOADSПолицейский участок (2015) HDTV 1080Полицейский участок - 01 серия.mkv
    Формат : Matroska
    Версия формата : Version 2
    Размер файла : 2, 28 Гбайт
    Продолжительность : 45 м.
    Общий поток : 7257 Кбит/сек
    Дата кодирования : UTC 2015-08-20 17:56:40
    Программа кодирования : mkvmerge v7.8.0 (\'River Man\') 32bit built on Apr 3 2015 12:11:22
    Библиотека кодирования : libebml v1.3.1 + libmatroska v1.4.2
    Видео
    Идентификатор : 1
    Формат : AVC
    Формат/Информация : Advanced Video Codec
    Профиль формата : High@L4
    Параметр CABAC формата : Да
    Параметр ReFrames формата : 4 кадра
    Идентификатор кодека : V_MPEG4/ISO/AVC
    Продолжительность : 45 м.
    Битрейт : 6921 Кбит/сек
    Ширина : 1920 пикселей
    Высота : 1080 пикселей
    Соотношение сторон : 16:9
    Режим частоты кадров : Постоянный
    Частота кадров : 25, 000 кадров/сек
    Цветовое пространство : YUV
    Субдискретизация насыщенности : 4:2:0
    Битовая глубина : 8 бит
    Тип развёртки : MBAFF
    Порядок развёртки : Верхнее поле первое
    Бит/(Пиксели*Кадры) : 0.133
    Размер потока : 2, 18 Гбайт (95%)
    Default : Да
    Forced : Нет
    Аудио
    Идентификатор : 2
    Формат : AC-3
    Формат/Информация : Audio Coding 3
    Расширение режима : CM (complete main)
    Параметр Endianness формата : Big
    Идентификатор кодека : A_AC3
    Продолжительность : 45 м.
    Вид битрейта : Постоянный
    Битрейт : 192 Кбит/сек
    Каналы : 2 канала
    Расположение каналов : Front: L R
    Частота : 48, 0 КГц
    Метод сжатия : С потерями
    Размер потока : 61, 9 Мбайт (3%)
    Default : Да
    Forced : Нет


    Скриншоты для ознакомления




    Полицейский участок (2015) HDTV [H.264/1080i-LQ] (серии 1-14 из 16) (обновляемая)
    загрузка...
    Рейтинг →
     (голосов: 1, оценка 5/5, голосовать можно 1 раз )

    Другие торренты по теме:

  • Полицейский участок (2015) SATRip (серии 1-2 из 16) (обновляемая) скачать через торрент бесплатно
  • Полицейский участок (2015) HDTVRip [H.264] (серии 1-4 из 16) (Обновляемая) скачать через торрент бесплатно
  • Полицейский участок (2015) HDTVRip (серии 1-2 из 16) (обновляемая) скачать через торрент бесплатно
  • Полицейский участок (2015) HDTVRip [H.264 / 720p] (серии 1-14 из 16) (обновляемая) скачать через торрент бесплатно


    • Комментарии (0):

      Информация

      Информация

        Посетители, находящиеся в группе Гости, не могут оставлять комментарии в данной новости.

        ↓ Меню




        ↓ Опрос

        Вы добавили сайт в закладки?
        Да
        Нет


        Top 10 за месяц (Фильмы)